<?xml version="1.0" standalone="no"?>
<!DOCTYPE svg PUBLIC "-//W3C//DTD SVG 1.1//EN" "http://www.w3.org/Graphics/SVG/1.1/DTD/svg11.dtd">
<svg xmlns="http://www.w3.org/2000/svg">
<defs >
<font id="Raleway" horiz-adv-x="470" ><font-face
    font-family="Raleway Medium"
    units-per-em="1000"
    panose-1="2 11 6 3 3 1 1 6 0 3"
    ascent="940"
    descent="-234"
    alphabetic="0" />
<glyph unicode=" " glyph-name="space" horiz-adv-x="253" />
<glyph unicode="!" glyph-name="exclam" horiz-adv-x="262" d="M87 240V717H175V240H87ZM87 0V124H175V0H87Z" />
<glyph unicode="&quot;" glyph-name="quotedbl" horiz-adv-x="324" d="M67 502V718H143V502H67ZM181 502V718H257V502H181Z" />
<glyph unicode="#" glyph-name="numbersign" horiz-adv-x="692" d="M655 447H521L478 269H611V201H462L413 0H340L390 201H222L173 0H100L150 201H37V269H166L209 447H81V511H225L273 710H346L297 511H465L513 710H586L537 511H655V447ZM406 269L449 447H281L238
269H406Z" />
<glyph unicode="$" glyph-name="dollar" horiz-adv-x="622" d="M508 561Q496 574 478 586T437 609T386 626T329 634V397L342 394Q397 382 441 367T517 328T565 272T582 191Q582 141 563 104T511 43T433 7T335 -7V-107H291V-6Q145 3 35 93L78 169Q93 154 115 139T165
110T227 88T296 75V314L281 318Q227 331 186 346T118 382T76 433T62 505Q62 553 79 590T126 654T199 696T291 714V815H335V714Q401 711 454 690T550 634L508 561ZM486 182Q486 208 476 226T445 259T396 285T329 306V74Q404 74 445 101T486 182ZM155 519Q155 494
163 476T189 445T233 423T296 404V634Q223 630 189 600T155 519Z" />
<glyph unicode="%" glyph-name="percent" horiz-adv-x="733" d="M191 428Q159 428 131 439T82 470T49 517T37 574Q37 604 49 631T82 677T131 708T191 720Q223 720 251 709T300 678T333 631T345 574Q345 544 333 517T300 471T251 440T191 428ZM191 476Q210 476
226 484T255 505T274 536T281 574Q281 594 274 612T254 643T226 664T191 672Q172 672 156 664T127 643T108 611T101 574Q101 554 108 536T127 505T156 484T191 476ZM542 -10Q510 -10 482 1T433 32T400 79T388 136Q388 166 400 193T433 239T482 270T542 282Q574
282 602 271T651 240T684 193T696 136Q696 106 684 79T651 33T602 2T542 -10ZM542 38Q561 38 577 46T606 67T625 98T632 136Q632 156 625 174T605 205T577 226T542 234Q523 234 507 226T478 205T459 173T452 136Q452 116 459 98T478 67T507 46T542 38ZM71 33L351
370L619 715L662 678L385 343L113 -5L71 33Z" />
<glyph unicode="&amp;" glyph-name="ampersand" horiz-adv-x="681" d="M560 0L486 77Q443 35 390 13T275 -10Q226 -10 184 5T111 46T63 109T45 188Q45 223 56 253T87 308T132 354T185 395Q161 422 144 444T117 485T101 522T96 559Q96 593 110 622T148 673T206
707T279 719Q315 719 346 709T401 680T438 634T452 574Q452 544 441 518T410 470T363 427T306 387L487 197Q506 233 516 275T527 366H600Q599 301 584 245T539 143L676 0H560ZM284 60Q329 60 368 78T438 128L236 341Q189 307 160 271T130 187Q130 157 143 133T177
93T226 69T284 60ZM177 561Q177 550 180 540T192 516T216 484T255 440Q307 473 339 503T371 572Q371 607 345 629T279 652Q234 652 206 626T177 561Z" />
<glyph unicode="&apos;" glyph-name="quotesingle" horiz-adv-x="210" d="M67 501V718H143V501H67Z" />
<glyph unicode="(" glyph-name="parenleft" horiz-adv-x="283" d="M42 346Q42 397 53 447T83 546T128 645T184 744L252 714Q233 685 211 642T169 549T137 446T124 343Q124 264 158 174T250 -8L185 -42Q122 52 82 150T42 346Z" />
<glyph unicode=")" glyph-name="parenright" horiz-adv-x="283" d="M241 346Q241 249 201 151T98 -42L33 -8Q91 83 125 173T159 343Q159 392 146 445T114 549T73 642T31 714L99 744Q129 694 154 645T199 547T230 447T241 346Z" />
<glyph unicode="*" glyph-name="asterisk" horiz-adv-x="329" d="M84 538L128 603L59 625L72 667L142 640L139 714H190L187 640L257 667L270 625L201 603L246 538L208 513L165 580L121 513L84 538Z" />
<glyph unicode="+" glyph-name="plus" horiz-adv-x="416" d="M366 391V319H248V191H168V319H50V391H168V519H248V391H366Z" />
<glyph unicode="," glyph-name="comma" horiz-adv-x="211" d="M74 -81L94 8H64V112H147V8L117 -81H74Z" />
<glyph unicode="-" glyph-name="hyphen" horiz-adv-x="423" d="M64 233V313H359V233H64Z" />
<glyph unicode="." glyph-name="period" horiz-adv-x="202" d="M64 0V112H138V0H64Z" />
<glyph unicode="/" glyph-name="slash" horiz-adv-x="633" d="M605 710L125 0H27L506 710H605Z" />
<glyph unicode="0" glyph-name="zero" horiz-adv-x="614" d="M560 293Q560 227 541 172T488 76T408 13T307 -10Q252 -10 206 12T126 75T73 171T54 293Q54 359 73 414T125 510T205 574T307 597Q361 597 407 574T488 511T541 415T560 293ZM471 293Q471 342 459 383T425
453T373 499T307 515Q270 515 240 499T188 454T154 383T142 293Q142 243 154 203T187 133T239 88T307 72Q343 72 373 88T425 133T459 202T471 293Z" />
<glyph unicode="1" glyph-name="one" horiz-adv-x="450" d="M426 80V0H67V80H209V470Q200 458 181 445T139 420T90 400T46 392V476Q68 476 95 488T146 517T188 549T209 571H299V80H426Z" />
<glyph unicode="2" glyph-name="two" horiz-adv-x="535" d="M43 0Q43 40 49 75T74 142T123 203T206 261Q236 277 267 292T323 325T365 363T382 410Q382 427 374 444T351 474T314 495T262 503Q232 503 208 495T164 474T131 447T108 422L51 486Q59 495 78 510T126
542T193 569T278 581Q324 581 361 569T423 534T463 483T477 420Q477 381 460 352T419 301T366 264T316 237Q294 226 267 211T214 176T171 132T147 80H488V0H43Z" />
<glyph unicode="3" glyph-name="three" horiz-adv-x="540" d="M358 236Q422 225 459 177T497 58Q497 12 480 -26T432 -91T356 -132T258 -147Q182 -147 125 -119T35 -38L94 21Q117 -20 156 -43T258 -67Q327 -67 366 -36T406 58Q406 121 364 158T240 196H214V270H242Q314
270 352 304T391 392Q391 445 354 471T261 497Q206 497 165 474T100 408L46 464Q59 489 81 509T133 545T197 568T270 576Q317 576 356 563T424 527T468 471T484 398Q484 368 476 341T451 292T411 256T358 236Z" />
<glyph unicode="4" glyph-name="four" horiz-adv-x="558" d="M345 -127V42H24V120L373 571H433V122H521V42H433V-127H345ZM115 122H354V435L115 122Z" />
<glyph unicode="5" glyph-name="five" horiz-adv-x="548" d="M281 314Q330 314 372 298T446 251T495 179T513 87Q513 34 494 -9T440 -84T360 -132T262 -149Q186 -149 125 -113T33 -17L88 31Q116 -15 162 -43T263 -71Q297 -71 326 -60T377 -28T411 22T423 86Q423
119 411 147T379 195T330 226T270 237Q227 237 190 218T128 164H49Q50 169 54 189T64 239T77 305T91 378Q108 464 129 571H474V490H194L151 264Q173 287 206 300T281 314Z" />
<glyph unicode="6" glyph-name="six" horiz-adv-x="606" d="M562 235Q562 184 543 140T489 62T408 9T308 -10Q251 -10 204 11T122 71T70 167T51 296Q51 401 70 479T124 610T208 689T317 715Q386 715 442 682T531 589L477 536Q455 583 412 610T316 638Q275 638
242 620T185 565T148 478T134 360Q156 412 205 443T317 474Q368 474 413 456T491 405T543 329T562 235ZM309 66Q343 66 374 79T428 116T464 169T478 235Q478 269 465 300T428 353T374 389T309 403Q274 403 244 390T190 354T154 300T140 235Q140 200 153 170T190
116T243 80T309 66Z" />
<glyph unicode="7" glyph-name="seven" horiz-adv-x="535" d="M392 502H27V583H531L174 -127H74L392 502Z" />
<glyph unicode="8" glyph-name="eight" horiz-adv-x="598" d="M549 201Q549 153 529 115T474 49T394 7T297 -8Q244 -8 199 8T120 53T68 121T49 205Q49 238 61 266T91 316T134 354T182 380Q160 389 140 403T105 436T82 477T73 524Q73 569 93 603T146 662T219 698T299
710Q339 710 379 698T452 663T505 605T526 525Q526 475 493 437T415 380Q442 369 466 352T509 313T538 262T549 201ZM460 207Q460 239 446 264T408 307T356 334T298 343Q268 343 240 334T189 306T153 263T139 206Q139 174 153 149T191 107T242 81T300 71Q330 71
358 81T409 109T446 152T460 207ZM162 521Q162 494 174 474T207 439T251 418T299 411Q323 411 347 418T391 440T423 475T436 523Q436 548 425 568T394 602T350 623T298 631Q271 631 247 624T204 602T174 567T162 521Z" />
<glyph unicode="9" glyph-name="nine" horiz-adv-x="589" d="M36 326Q36 377 55 421T109 499T190 552T290 571Q347 571 394 550T476 490T528 394T547 265Q547 160 528 82T474 -49T390 -128T281 -154Q212 -154 156 -121T67 -28L121 25Q143 -22 186 -49T282 -77Q364
-77 413 -4T464 201Q442 149 393 118T281 87Q230 87 185 105T107 156T55 232T36 326ZM289 495Q254 495 224 482T170 445T134 392T120 326Q120 291 133 261T170 208T223 172T289 158Q324 158 354 171T408 207T444 260T458 326Q458 360 445 391T408 445T354 481T289
495Z" />
<glyph unicode=":" glyph-name="colon" horiz-adv-x="201" d="M64 406V518H137V406H64ZM64 0V112H137V0H64Z" />
<glyph unicode=";" glyph-name="semicolon" horiz-adv-x="221" d="M69 406V518H142V406H69ZM79 -81L99 8H69V112H152V8L122 -81H79Z" />
<glyph unicode="&lt;" glyph-name="less" horiz-adv-x="510" d="M33 280L453 533V439L161 259L453 82V-16L33 234V280Z" />
<glyph unicode="=" glyph-name="equal" horiz-adv-x="439" d="M67 179V239H372V179H67ZM67 313V373H372V313H67Z" />
<glyph unicode="&gt;" glyph-name="greater" horiz-adv-x="510" d="M477 234L57 -16V82L349 259L57 439V533L477 280V234Z" />
<glyph unicode="?" glyph-name="question" horiz-adv-x="479" d="M144 211Q144 265 163 305T228 375Q246 387 269 400T314 430T349 472T364 531Q364 559 354 580T326 616T287 638T241 646Q216 646 194 639T152 618T118 588T93 551L34 590Q47 621 69 645T119 685T178
710T243 719Q280 719 316 708T380 672T425 612T442 527Q442 489 432 462T404 415T364 380T316 351Q298 341 280 330T249 304T227 266T218 211H144ZM146 0V116H220V0H146Z" />
<glyph unicode="@" glyph-name="at" horiz-adv-x="840" d="M419 603Q493 603 559 576T676 500T756 380T786 222Q786 208 785 185T778 135T764 82T737 33T696 -2T637 -16Q611 -16 595 -9T570 11T556 40T550 73Q521 43 477 23T380 2Q307 2 268 40T228 138Q228 177
244 204T288 247T348 270T415 277Q458 277 490 269T538 254Q538 287 533 314T514 361T477 392T417 403Q377 403 342 391T279 357L259 406Q295 430 336 443T425 457Q483 457 517 438T568 389T589 323T594 251V132Q594 110 595 91T602 58T617 36T645 28Q675 28 694
49T724 100T740 164T744 224Q744 296 720 357T651 465T547 537T417 563Q348 563 288 538T184 469T114 364T88 230Q88 160 112 99T179 -7T281 -79T410 -106Q455 -106 491 -96T564 -68L578 -106Q537 -126 495 -136T409 -146Q334 -146 268 -118T153 -40T75 79T46 230Q46
316 77 385T159 502T278 577T419 603ZM476 76Q515 94 526 119T537 171V208Q524 210 492 220T414 230Q388 230 365 226T324 211T296 184T285 142Q285 104 312 79T384 54Q408 54 432 60T476 76Z" />
<glyph unicode="A" glyph-name="A" horiz-adv-x="677" d="M301 710H377L667 0H571L487 208H189L106 0H10L301 710ZM467 278L339 606L207 278H467Z" />
<glyph unicode="B" glyph-name="B" horiz-adv-x="671" d="M630 183Q630 142 614 108T569 50T503 13T422 0H85V710H438Q475 710 505 694T556 653T588 595T600 529Q600 476 574 431T498 364Q559 346 594 298T630 183ZM539 199Q539 223 531 245T508 285T473 312T429
322H175V78H422Q447 78 468 88T505 114T530 153T539 199ZM175 632V395H401Q425 395 445 404T479 430T502 467T511 513Q511 538 503 560T482 598T449 623T407 632H175Z" />
<glyph unicode="C" glyph-name="C" horiz-adv-x="682" d="M39 360Q39 424 61 487T127 601T234 683T377 714Q472 714 540 671T641 559L570 513Q554 547 532 570T483 607T428 627T373 633Q314 633 269 609T192 545T146 456T130 356Q130 300 148 250T200 160T278
98T376 75Q404 75 433 82T490 104T540 143T579 200L654 159Q637 119 607 89T538 37T456 5T372 -6Q299 -6 238 26T133 109T64 226T39 360Z" />
<glyph unicode="D" glyph-name="D" horiz-adv-x="716" d="M85 0V710H331Q416 710 480 682T588 606T652 494T674 356Q674 275 650 210T581 98T473 26T331 0H85ZM583 356Q583 416 567 466T518 553T438 609T331 630H175V80H331Q392 80 439 101T518 159T566 246T583 356Z" />
<glyph unicode="E" glyph-name="E" horiz-adv-x="605" d="M567 80V0H85V710H558V630H175V400H508V325H175V80H567Z" />
<glyph unicode="F" glyph-name="F" horiz-adv-x="583" d="M85 0V710H554V630H175V393H494V318H175V0H85Z" />
<glyph unicode="G" glyph-name="G" horiz-adv-x="714" d="M586 96Q492 -5 370 -5Q299 -5 239 26T134 107T65 223T39 357Q39 429 64 493T133 607T238 686T370 715Q473 715 539 672T641 560L572 512Q540 574 487 604T368 634Q314 634 270 611T195 549T147 460T130
355Q130 298 149 248T201 159T279 98T377 76Q493 76 586 188V286H433V354H662V0H586V96Z" />
<glyph unicode="H" glyph-name="H" horiz-adv-x="741" d="M656 710V0H566V323H175V0H85V710H175V403H566V710H656Z" />
<glyph unicode="I" glyph-name="I" horiz-adv-x="260" d="M85 0V710H175V0H85Z" />
<glyph unicode="J" glyph-name="J" horiz-adv-x="485" d="M35 106Q55 92 89 81T166 70Q217 70 247 88T292 141T313 229T318 349V710H408V349Q408 268 401 202T368 88T295 15T166 -11Q76 -11 12 33L35 106Z" />
<glyph unicode="K" glyph-name="K" horiz-adv-x="652" d="M85 0V709H175V317L541 710H638L353 397L654 0H556L298 345L175 217V0H85Z" />
<glyph unicode="L" glyph-name="L" horiz-adv-x="584" d="M85 0V710H175V80H571V0H85Z" />
<glyph unicode="M" glyph-name="M" horiz-adv-x="874" d="M699 0V549L463 128H412L175 549V0H85V710H180L437 249L695 710H789V0H699Z" />
<glyph unicode="N" glyph-name="N" horiz-adv-x="770" d="M175 542V0H85V710H155L595 157V709H685V0H609L175 542Z" />
<glyph unicode="O" glyph-name="O" horiz-adv-x="748" d="M373 -5Q298 -5 237 25T131 106T63 222T39 355Q39 426 64 491T135 606T241 685T375 715Q450 715 511 684T616 601T684 486T708 354Q708 283 683 218T613 104T507 25T373 -5ZM130 355Q130 301 147 251T197
161T274 99T374 76Q431 76 476 100T552 164T600 254T617 355Q617 409 600 459T550 548T473 610T374 633Q317 633 272 609T196 546T147 457T130 355Z" />
<glyph unicode="P" glyph-name="P" horiz-adv-x="623" d="M85 0V710H381Q428 710 467 691T535 639T580 566T596 483Q596 439 581 398T539 325T473 274T387 255H175V0H85ZM175 335H382Q410 335 432 346T471 378T496 426T505 483Q505 514 495 541T467 588T426 619T376
630H175V335Z" />
<glyph unicode="Q" glyph-name="Q" horiz-adv-x="746" d="M563 58Q523 29 475 12T373 -5Q298 -5 237 26T131 107T63 222T39 355Q39 426 64 491T135 606T241 685T375 715Q450 715 511 684T616 601T684 486T708 354Q708 282 683 218T612 103L701 0H613L563 58ZM374
76Q413 76 447 88T509 121L414 232H502L556 169Q585 208 601 256T617 355Q617 409 600 459T550 549T473 611T374 634Q317 634 272 610T196 547T147 457T130 355Q130 301 147 251T197 161T274 99T374 76Z" />
<glyph unicode="R" glyph-name="R" horiz-adv-x="657" d="M85 0V710H389Q436 710 475 691T543 639T588 566T604 483Q604 446 594 412T564 349T517 301T455 272L627 0H525L363 255H175V0H85ZM175 335H390Q418 335 440 347T479 379T504 427T513 483Q513 513 503
539T475 586T434 618T384 630H175V335Z" />
<glyph unicode="S" glyph-name="S" horiz-adv-x="609" d="M502 561Q490 575 470 588T425 611T371 628T309 635Q226 635 188 604T149 519Q149 490 160 471T194 439T253 415T336 394Q391 382 435 367T511 328T559 272T576 191Q576 140 556 103T502 41T420 5T318
-7Q236 -7 163 18T29 93L72 169Q88 152 113 135T171 105T241 83T320 74Q396 74 438 101T480 182Q480 212 467 232T427 268T363 294T275 318Q221 331 180 346T112 382T70 433T56 505Q56 556 75 595T128 661T209 701T311 715Q383 715 441 693T544 634L502 561Z" />
<glyph unicode="T" glyph-name="T" horiz-adv-x="614" d="M597 630H352V0H262V630H17V710H597V630Z" />
<glyph unicode="U" glyph-name="U" horiz-adv-x="755" d="M377 76Q439 76 480 100T545 162T580 250T590 351V710H680V351Q680 279 664 215T611 101T518 24T378 -5Q293 -5 235 25T142 104T91 218T75 351V710H165V351Q165 298 175 249T210 161T275 100T377 76Z" />
<glyph unicode="V" glyph-name="V" horiz-adv-x="680" d="M105 710L340 113L574 710H669L379 0H301L10 710H105Z" />
<glyph unicode="W" glyph-name="W" horiz-adv-x="1049" d="M345 706H430L524 459L619 706H704L581 397L703 104L943 710H1041L744 0H666L525 335L383 0H305L9 710H106L347 104L468 397L345 706Z" />
<glyph unicode="X" glyph-name="X" horiz-adv-x="637" d="M103 710L319 414L535 710H634L367 350L626 0H527L319 286L111 0H11L270 350L3 710H103Z" />
<glyph unicode="Y" glyph-name="Y" horiz-adv-x="655" d="M112 710L327 340L544 710H642L372 259V0H282V261L13 710H112Z" />
<glyph unicode="Z" glyph-name="Z" horiz-adv-x="631" d="M32 70L490 630H41V710H595V640L145 80H595V0H32V70Z" />
<glyph unicode="[" glyph-name="bracketleft" horiz-adv-x="270" d="M84 -40V740H224V668H166V32H224V-40H84Z" />
<glyph unicode="\" glyph-name="backslash" horiz-adv-x="590" d="M127 710L562 0H464L28 710H127Z" />
<glyph unicode="]" glyph-name="bracketright" horiz-adv-x="270" d="M46 -40V32H104V668H46V740H186V-40H46Z" />
<glyph unicode="^" glyph-name="asciicircum" horiz-adv-x="553" d="M42 303L240 710H314L511 303H436L277 631L115 303H42Z" />
<glyph unicode="_" glyph-name="underscore" horiz-adv-x="503" d="M63 -80V0H440V-80H63Z" />
<glyph unicode="`" glyph-name="grave" horiz-adv-x="232" d="M48 730H135L194 629L137 609L48 730Z" />
<glyph unicode="a" glyph-name="a" horiz-adv-x="554" d="M205 -10Q168 -10 136 2T81 37T44 88T30 153Q30 189 46 218T91 269T161 302T250 314Q288 314 327 307T396 288V330Q396 394 360 430T258 467Q179 467 92 406L63 463Q164 531 266 531Q369 531 426 476T484
321V108Q484 77 512 76V0Q498 -2 489 -3T470 -4Q444 -4 429 11T410 49L408 86Q373 39 320 15T205 -10ZM228 56Q275 56 315 73T377 120Q396 139 396 159V236Q332 261 263 261Q197 261 156 233T114 160Q114 138 122 119T146 86T183 64T228 56Z" />
<glyph unicode="b" glyph-name="b" horiz-adv-x="623" d="M339 -10Q278 -10 228 20T149 98V0H71V730H159V418Q192 469 240 500T352 531Q406 531 449 508T522 448T569 361T586 259Q586 204 567 155T515 70T437 12T339 -10ZM317 66Q356 66 389 82T446 125T483 186T496
259Q496 297 484 332T449 395T395 438T325 455Q297 455 272 445T226 419T188 380T159 333V182Q164 157 180 136T219 100T267 75T317 66Z" />
<glyph unicode="c" glyph-name="c" horiz-adv-x="554" d="M36 262Q36 317 55 366T109 451T192 509T301 531Q379 531 435 497T521 404L435 377Q415 414 379 434T299 455Q263 455 231 441T176 400T140 339T126 262Q126 221 140 185T177 123T232 81T300 66Q323 66
345 72T386 90T419 115T439 147L525 121Q513 92 492 68T441 27T377 0T302 -10Q243 -10 194 12T110 71T56 157T36 262Z" />
<glyph unicode="d" glyph-name="d" horiz-adv-x="629" d="M286 -10Q232 -10 186 12T107 71T56 157T37 260Q37 315 54 364T103 451T178 509T274 531Q337 531 386 498T465 418V730H553V108Q553 77 581 76V0Q567 -2 559 -3T542 -4Q516 -4 497 13T477 54V98Q446 47
395 19T286 -10ZM307 66Q331 66 356 75T404 100T443 137T465 183V333Q456 358 438 380T398 419T350 445T299 455Q260 455 229 439T175 395T140 332T128 259Q128 220 142 185T180 123T236 82T307 66Z" />
<glyph unicode="e" glyph-name="e" horiz-adv-x="591" d="M302 -10Q243 -10 194 11T110 70T56 156T36 261Q36 316 55 365T110 451T195 509T303 531Q362 531 410 509T493 451T545 366T564 265Q564 254 564 245T562 231H129Q132 192 147 160T186 105T240 69T305
56Q329 56 352 62T395 80T430 107T454 143L530 122Q517 93 495 69T443 28T377 0T302 -10ZM481 296Q478 333 463 364T424 418T369 452T303 465Q268 465 237 453T183 418T145 364T127 296H481Z" />
<glyph unicode="f" glyph-name="f" horiz-adv-x="343" d="M99 0V453H28V522H99V533Q99 630 142 685T259 740Q290 740 320 732T374 708L352 643Q338 653 318 659T277 665Q233 665 210 632T187 536V522H326V453H187V0H99Z" />
<glyph unicode="g" glyph-name="g" horiz-adv-x="624" d="M279 -6Q226 -6 182 16T105 75T56 160T38 260Q38 315 55 364T105 451T181 509T280 531Q346 531 394 499T475 418V522H553V6Q553 -50 532 -92T475 -164T391 -208T287 -223Q198 -223 143 -193T50 -108L101
-63Q132 -109 181 -132T287 -155Q323 -155 355 -145T412 -115T450 -65T465 6V98Q450 74 430 55T385 22T334 1T279 -6ZM306 66Q334 66 360 76T408 102T445 140T465 183V333Q454 360 437 382T397 420T350 446T298 455Q258 455 227 438T173 393T139 330T127 258Q127
219 141 184T179 123T235 82T306 66Z" />
<glyph unicode="h" glyph-name="h" horiz-adv-x="590" d="M524 0H436V292Q436 373 408 412T326 452Q300 452 274 442T226 413T186 370T159 315V0H71V730H159V410Q190 467 243 499T359 531Q405 531 437 514T488 468T515 399T524 312V0Z" />
<glyph unicode="i" glyph-name="i" horiz-adv-x="230" d="M71 0V522H159V0H71ZM71 620V730H159V620H71Z" />
<glyph unicode="j" glyph-name="j" horiz-adv-x="237" d="M4 -186Q-31 -186 -61 -176T-116 -144L-75 -85Q-61 -98 -43 -103T-6 -108Q10 -108 25 -102T52 -84T71 -57T78 -23V522H166V-17Q166 -54 153 -85T117 -138T65 -173T4 -186ZM78 620V730H166V620H78Z" />
<glyph unicode="k" glyph-name="k" horiz-adv-x="539" d="M439 0L259 255L159 161V0H71V730H159V250L427 521H524L316 305L534 0H439Z" />
<glyph unicode="l" glyph-name="l" horiz-adv-x="286" d="M73 730H161V135Q161 106 176 90T220 73Q231 73 246 76T274 85L288 14Q266 5 236 -1T183 -7Q132 -7 103 22T73 103V730Z" />
<glyph unicode="m" glyph-name="m" horiz-adv-x="924" d="M858 0H770V292Q770 374 744 413T665 452Q611 452 569 414T508 314V0H420V292Q420 376 394 414T316 452Q263 452 220 415T159 315V0H71V522H151V410Q183 468 234 499T349 531Q415 531 453 496T501 404Q571
531 700 531Q745 531 775 515T824 469T850 399T858 312V0Z" />
<glyph unicode="n" glyph-name="n" horiz-adv-x="590" d="M524 0H436V292Q436 376 411 414T333 452Q306 452 279 442T228 413T186 370T159 315V0H71V522H151V410Q182 465 240 498T368 531Q413 531 443 515T491 469T516 399T524 312V0Z" />
<glyph unicode="o" glyph-name="o" horiz-adv-x="599" d="M299 -10Q240 -10 192 12T109 71T55 157T36 260Q36 315 55 364T109 450T192 509T299 531Q357 531 406 509T489 450T543 364T563 260Q563 206 544 157T490 71T407 12T299 -10ZM126 259Q126 218 139 183T176
122T231 81T299 66Q335 66 366 81T422 122T459 184T473 261Q473 301 460 336T422 398T367 440T299 455Q263 455 232 440T177 398T140 336T126 259Z" />
<glyph unicode="p" glyph-name="p" horiz-adv-x="623" d="M352 -10Q287 -10 238 22T159 103V-213H71V522H149V424Q180 472 229 501T339 531Q393 531 438 509T516 450T567 363T586 261Q586 205 569 156T521 70T447 12T352 -10ZM325 66Q364 66 395 82T449 126T484
189T496 261Q496 300 482 335T444 397T388 439T317 455Q293 455 268 446T220 421T181 384T159 338V189Q170 163 187 141T226 102T273 76T325 66Z" />
<glyph unicode="q" glyph-name="q" horiz-adv-x="623" d="M271 -10Q219 -10 176 12T102 71T54 158T37 261Q37 316 56 365T108 451T187 509T284 531Q345 531 395 501T474 423V522H552V-101Q552 -132 580 -133V-209Q556 -212 533 -212Q505 -212 485 -192T464 -142V103Q392
-10 271 -10ZM301 66Q357 66 397 98T464 178V328Q459 353 443 376T405 417T356 444T303 455Q264 455 232 439T177 395T140 332T127 259Q127 220 140 185T176 123T231 82T301 66Z" />
<glyph unicode="r" glyph-name="r" horiz-adv-x="363" d="M347 445Q281 443 231 411T159 322V0H71V522H153V401Q180 455 224 488T318 526Q328 526 335 526T347 525V445Z" />
<glyph unicode="s" glyph-name="s" horiz-adv-x="494" d="M254 -10Q191 -10 130 9T25 66L63 125Q109 90 155 73T252 55Q309 55 342 77T376 141Q376 160 367 173T340 197T294 215T229 232Q182 244 148 255T92 281T60 317T50 369Q50 408 65 438T108 489T171 520T250
531Q309 531 360 512T446 462L406 409Q373 438 332 452T248 467Q200 467 167 447T133 381Q133 363 139 351T161 330T199 314T256 299Q308 287 346 275T410 245T448 205T461 149Q461 76 405 33T254 -10Z" />
<glyph unicode="t" glyph-name="t" horiz-adv-x="352" d="M341 26Q333 22 320 17T291 6T255 -3T214 -7Q166 -7 131 19T96 102V453H25V522H96V696H184V522H301V453H184V129Q186 100 203 87T243 74Q269 74 290 82T320 96L341 26Z" />
<glyph unicode="u" glyph-name="u" horiz-adv-x="601" d="M232 -10Q150 -10 108 45T66 209V522H154V226Q154 66 265 66Q319 66 366 100T437 195V522H525V108Q525 77 553 76V0Q538 -2 530 -2T513 -3Q487 -3 470 12T451 51L449 112Q414 53 357 22T232 -10Z" />
<glyph unicode="v" glyph-name="v" horiz-adv-x="538" d="M222 0L16 522H107L272 77L438 522H522L316 0H222Z" />
<glyph unicode="w" glyph-name="w" horiz-adv-x="821" d="M725 522H810L588 0H515L410 255L306 0H233L11 522H95L275 87L363 304L273 521H346L410 354L474 521H547L458 304L546 87L725 522Z" />
<glyph unicode="x" glyph-name="x" horiz-adv-x="513" d="M105 522L248 330L256 314L265 330L407 522H500L305 260L501 0H408L265 191L256 206L248 191L105 0H12L208 260L13 522H105Z" />
<glyph unicode="y" glyph-name="y" horiz-adv-x="545" d="M95 -142Q108 -144 121 -145T141 -146Q153 -146 162 -141T181 -119T203 -75T233 0L12 522H103L281 79L443 522H527L273 -137Q259 -172 227 -198T137 -225Q128 -225 119 -224T95 -220V-142Z" />
<glyph unicode="z" glyph-name="z" horiz-adv-x="493" d="M30 57L364 458H39V522H458V465L126 64H459V0H30V57Z" />
<glyph unicode="{" glyph-name="braceleft" horiz-adv-x="271" d="M169 668V424Q169 410 163 392T140 360Q155 346 162 328T169 296V41H224V-31H112Q104 -31 97 -25T89 -1V270Q89 292 78 309T47 329V393Q57 393 65 399T78 414T86 432T89 450V710Q89 729 98 734T112
740H224V668H169Z" />
<glyph unicode="|" glyph-name="bar" horiz-adv-x="240" d="M82 -130V775H158V-130H82Z" />
<glyph unicode="}" glyph-name="braceright" horiz-adv-x="271" d="M47 668V740H159Q164 740 173 735T182 710V450Q182 442 184 433T192 414T205 399T224 393V329Q204 326 193 309T182 270V-1Q182 -18 174 -24T159 -31H47V41H102V296Q102 310 108 328T131 360Q115
374 109 392T102 424V668H47Z" />
<glyph unicode="~" glyph-name="asciitilde" horiz-adv-x="532" d="M65 237Q65 243 71 261T91 298T127 333T182 349Q206 349 227 340T267 321T306 301T347 292Q366 292 379 299T401 316T412 333T416 344H468Q468 341 462 324T442 288T405 253T346 237Q320 237
299 245T257 264T219 284T181 293Q163 293 151 285T131 266T120 247T117 237H65V237Z" />
<glyph unicode="&#xa0;" glyph-name="uni00A0" horiz-adv-x="253" />
<glyph unicode="&#xa1;" glyph-name="exclamdown" horiz-adv-x="260" d="M174 474V-3H86V474H174ZM174 714V590H86V714H174Z" />
<glyph unicode="&#xa2;" glyph-name="cent" horiz-adv-x="570" d="M276 -120V-9Q225 -5 182 19T108 81T60 164T42 258Q42 309 58 355T104 438T177 499T276 530V645H320V530Q393 528 445 495T527 404L442 377Q422 413 390 431T320 452V68Q338 69 357 75T395 92T427
116T446 147L532 121Q519 88 495 64T440 23T379 -2T320 -10V-120H276ZM132 258Q132 225 142 194T172 138T218 96T276 72V449Q242 445 215 427T170 383T142 324T132 258Z" />
<glyph unicode="&#xa3;" glyph-name="sterling" horiz-adv-x="512" d="M53 375H140Q130 396 119 416T99 456T83 497T77 542Q77 578 92 609T132 664T192 701T266 715Q323 715 373 687T455 610L406 556Q382 595 343 618T264 642Q241 642 222 634T189 611T166 577T158
535Q158 515 164 496T180 457T201 417T223 375H402V307H245Q247 296 248 286T249 264Q249 215 227 171T151 69Q188 79 225 79Q265 79 297 70T365 61Q385 61 404 65T450 79L472 12Q446 -1 418 -8T361 -15Q338 -15 318 -11T276 -3T234 6T189 10Q164 10 133 5T75 -8L53
56Q117 117 144 164T172 260Q172 284 166 307H53V375Z" />
<glyph unicode="&#xa4;" glyph-name="currency" horiz-adv-x="538" d="M160 486Q182 503 209 512T269 521Q301 521 328 512T378 486L449 558L490 517L418 445Q451 398 451 337Q451 277 417 229L490 157L454 121L380 190Q358 173 330 164T269 154Q236 154 208 163T157
190L84 121L48 157L120 229Q104 252 96 279T87 337Q87 399 119 445L48 517L89 558L160 486ZM159 336Q159 310 167 288T191 250T226 225T269 215Q292 215 312 224T347 250T370 289T379 338Q379 364 371 386T347 424T312 450T269 459Q246 459 226 450T191 424T168
385T159 336Z" />
<glyph unicode="&#xa5;" glyph-name="yen" horiz-adv-x="687" d="M454 377H535V317H421L387 259V231H536V171H387V0H297V171H150V231H297V261L265 317H150V377H233L29 710H127L342 340L559 710H658L454 377Z" />
<glyph unicode="&#xa6;" glyph-name="brokenbar" horiz-adv-x="242" d="M159 273V-130H83V273H159ZM159 775V372H83V775H159Z" />
<glyph unicode="&#xa7;" glyph-name="section" horiz-adv-x="517" d="M430 201Q473 172 473 97Q473 49 453 14T403 -43T336 -77T265 -88Q229 -88 198 -79T141 -56T95 -25T61 7L118 61Q153 27 187 12T262 -4Q284 -4 305 2T344 21T371 52T382 94Q382 119 372 134T346
158T309 169T270 174Q225 177 189 188T126 221T86 272T71 341Q71 369 78 390T95 423Q76 438 62 468T47 538Q47 576 64 608T108 664T172 701T247 715Q286 715 316 706T370 681T411 648T440 611L372 579Q355 610 321 623T252 636Q229 636 209 630T172 610T146 579T136
539Q136 513 145 496T169 469T206 454T253 449Q289 449 326 441T392 413T439 364T458 290Q458 261 450 238T430 201ZM157 330Q157 288 178 270T230 245T293 236T348 225Q360 235 367 252T374 288Q374 313 363 330T334 358T296 372T256 377Q210 377 179 390Q169
380 163 364T157 330Z" />
<glyph unicode="&#xa8;" glyph-name="dieresis" horiz-adv-x="368" d="M66 624V726H140V624H66ZM228 624V726H302V624H228Z" />
<glyph unicode="&#xa9;" glyph-name="copyright" horiz-adv-x="836" d="M416 -7Q336 -7 269 20T152 96T75 211T47 355Q47 432 75 498T152 612T268 687T416 715Q496 715 564 688T683 612T761 498T789 355Q789 277 761 211T683 97T565 21T416 -7ZM416 31Q486 31
546 54T652 120T722 222T748 353Q748 422 723 481T654 584T549 652T416 677Q345 677 285 653T181 585T112 482T87 354Q87 285 112 226T181 124T285 56T416 31ZM424 121Q375 121 332 138T256 186T204 260T185 355Q185 398 199 440T243 515T316 569T419 590Q489 590
542 560T620 474L535 447Q526 467 512 480T482 500T450 511T419 514Q383 514 356 501T311 465T284 414T275 355Q275 317 288 288T323 238T370 208T421 197Q456 197 490 215T541 267L626 241Q618 221 600 200T556 161T497 132T424 121Z" />
<glyph unicode="&#xaa;" glyph-name="ordfeminine" horiz-adv-x="438" d="M165 344Q140 344 118 352T80 376T55 411T46 455Q46 505 87 536T195 567Q221 567 246 563T291 550V575Q291 615 268 638T202 661Q174 661 147 651T89 620L66 665Q136 711 208 711Q280 711
321 674T362 567V436Q362 413 383 412V350Q373 348 367 348T352 347Q330 347 318 358T303 386L302 409Q277 377 242 361T165 344ZM185 397Q214 397 239 407T278 435Q291 447 291 461V509Q272 517 250 520T207 524Q165 524 139 507T113 461Q113 434 133 416T185
397Z" />
<glyph unicode="&#xab;" glyph-name="guillemotleft" horiz-adv-x="596" d="M40 280L293 461V387L111 259L293 134V60L40 234V280ZM282 280L535 461V387L353 259L535 134V60L282 234V280Z" />
<glyph unicode="&#xac;" glyph-name="logicalnot" horiz-adv-x="591" d="M521 375V120H445V295H67V375H521Z" />
<glyph unicode="&#xad;" glyph-name="uni00AD" horiz-adv-x="582" d="M64 233V313H518V233H64Z" />
<glyph unicode="&#xae;" glyph-name="registered" horiz-adv-x="836" d="M417 -7Q337 -7 270 20T153 96T75 211T47 355Q47 432 75 498T152 612T269 687T417 715Q497 715 565 688T683 612T761 498T789 355Q789 277 761 211T683 97T565 21T417 -7ZM417 30Q487 30
547 53T651 120T721 222T747 354Q747 423 722 482T653 584T549 652T417 677Q346 677 286 653T182 585T114 482T89 355Q89 286 113 227T181 124T285 55T417 30ZM262 579H454Q484 579 509 567T552 534T580 487T590 435Q590 388 564 351T494 302L603 130H530L428 292H327V130H262V579ZM451
349Q487 349 506 373T526 435Q526 473 504 496T448 520H327V349H451Z" />
<glyph unicode="&#xaf;" glyph-name="overscore" horiz-adv-x="403" d="M56 654V712H348V654H56Z" />
<glyph unicode="&#xb0;" glyph-name="degree" horiz-adv-x="272" d="M47 637Q47 674 72 699T136 724Q174 724 199 699T225 637Q225 597 200 572T136 546Q98 546 73 572T47 637ZM106 665Q94 651 94 635Q94 618 106 606Q119 593 136 593Q155 593 166 606Q178 618
178 635Q178 651 166 665Q155 677 136 677Q118 677 106 665Z" />
<glyph unicode="&#xb1;" glyph-name="plusminus" horiz-adv-x="466" d="M67 51V123H399V51H67ZM399 404V332H273V196H193V332H67V404H193V540H273V404H399Z" />
<glyph unicode="&#xb2;" glyph-name="twosuperior" horiz-adv-x="396" d="M34 400Q34 439 41 468T64 520T104 558T161 588Q184 597 208 605T252 625T284 652T297 689Q297 718 273 737T200 757Q152 757 121 739T74 704L38 743Q43 750 56 761T90 784T141 803T208
811Q283 811 321 777T359 688Q359 656 345 635T310 599T265 575T221 560Q190 550 171 537T140 510T125 482T121 454H352V400H34Z" />
<glyph unicode="&#xb3;" glyph-name="threesuperior" horiz-adv-x="394" d="M190 394Q127 394 85 417T32 480L64 518Q65 507 74 496T100 474T139 457T189 450Q236 450 268 467T301 515Q301 548 261 565T152 583H129V634H152Q215 634 251 649T287 696Q287 726 257
743T187 760Q146 760 117 745T72 706L35 749Q55 778 97 794T187 811Q221 811 250 803T300 779T334 744T346 699Q346 664 323 642T254 611Q302 604 329 575T357 507Q357 480 344 459T307 423T253 402T190 394Z" />
<glyph unicode="&#xb4;" glyph-name="acute" horiz-adv-x="232" d="M106 609L48 629L106 730H194L106 609Z" />
<glyph unicode="&#xb5;" glyph-name="mu" horiz-adv-x="628" d="M78 522H166V226Q166 66 279 66Q305 66 331 75T379 100T420 141T450 195V522H538V108Q538 77 566 76V0Q551 -2 542 -2T525 -3Q497 -3 480 15T462 57V112Q450 88 430 66T386 27T333 0T274 -10Q228
-10 200 12T161 67V-212H78V522Z" />
<glyph unicode="&#xb6;" glyph-name="paragraph" horiz-adv-x="618" d="M35 465Q35 581 109 645T317 710H574V642H504V-80H428V224H361V-80H285V224Q228 225 182 242T103 290T53 365T35 465ZM110 467Q110 424 124 393T162 339T217 306T285 292V642Q200 640 155
594T110 467ZM428 642H361V292H428V642Z" />
<glyph unicode="&#xb7;" glyph-name="middot" horiz-adv-x="202" d="M64 245V369H138V245H64Z" />
<glyph unicode="&#xb8;" glyph-name="cedilla" horiz-adv-x="296" d="M42 -126Q55 -133 79 -139T130 -145Q157 -145 172 -137T187 -110Q187 -90 173 -83T136 -75Q115 -75 92 -79T56 -88L114 21L153 7L118 -48Q126 -45 136 -44T154 -43Q189 -43 211 -59T233 -107Q233
-142 205 -162T123 -182Q93 -182 68 -177T22 -163L42 -126Z" />
<glyph unicode="&#xb9;" glyph-name="onesuperior" horiz-adv-x="280" d="M259 455V400H49V455H129V749Q124 743 113 735T89 719T61 706T34 700V755Q50 755 66 763T97 782T120 801T129 811H185V455H259Z" />
<glyph unicode="&#xba;" glyph-name="ordmasculine" horiz-adv-x="448" d="M224 344Q183 344 150 359T92 399T55 457T42 527Q42 564 55 597T92 656T149 696T224 711Q265 711 298 697T356 657T393 598T406 527Q406 491 393 458T356 399T299 359T224 344ZM114 526Q114
500 122 478T146 440T181 415T224 405Q247 405 267 414T302 440T325 479T334 528Q334 554 326 576T302 614T267 640T224 649Q201 649 181 640T146 614T123 575T114 526Z" />
<glyph unicode="&#xbb;" glyph-name="guillemotright" horiz-adv-x="596" d="M556 234L303 60V134L485 259L303 387V461L556 280V234ZM314 234L61 60V134L243 259L61 387V461L314 280V234Z" />
<glyph unicode="&#xbc;" glyph-name="onequarter" horiz-adv-x="858" d="M709 0V100H483V153L726 406H764V154H823V100H764V0H709ZM540 154H711V334L540 154ZM269 375V320H59V375H139V669Q134 663 123 655T99 639T71 626T44 620V675Q60 675 76 683T107 702T130
721T139 731H195V375H269ZM147 33L427 370L695 715L738 678L461 343L189 -5L147 33Z" />
<glyph unicode="&#xbd;" glyph-name="onehalf" horiz-adv-x="892" d="M537 0Q537 39 544 68T566 120T604 158T660 188Q682 197 705 205T747 225T778 251T790 288Q790 318 767 337T697 357Q674 357 655 352T621 339T595 322T575 303L541 343Q546 350 558 361T591
384T640 403T705 411Q777 411 813 377T850 287Q850 255 837 234T804 199T761 175T718 160Q688 150 669 137T640 110T626 82T622 54H851V0H537ZM269 375V320H59V375H139V669Q134 663 123 655T99 639T71 626T44 620V675Q60 675 76 683T107 702T130 721T139 731H195V375H269ZM110
33L390 370L658 715L701 678L424 343L152 -5L110 33Z" />
<glyph unicode="&#xbe;" glyph-name="threequarters" horiz-adv-x="866" d="M198 314Q135 314 93 337T40 400L72 438Q73 427 82 416T108 394T147 377T197 370Q244 370 276 387T309 435Q309 468 269 485T160 503H137V554H160Q223 554 259 569T295 616Q295 646 265
663T195 680Q154 680 125 665T80 626L43 669Q63 698 105 714T195 731Q229 731 258 723T308 699T342 664T354 619Q354 584 331 562T262 531Q310 524 337 495T365 427Q365 400 352 379T315 343T261 322T198 314ZM716 0V100H490V153L733 406H771V154H830V100H771V0H716ZM547
154H718V334L547 154ZM178 33L458 370L726 715L769 678L492 343L220 -5L178 33Z" />
<glyph unicode="&#xbf;" glyph-name="questiondown" horiz-adv-x="473" d="M331 295Q331 241 312 201T247 131Q229 119 206 106T161 76T126 34T111 -25Q111 -53 121 -74T149 -110T188 -132T234 -140Q259 -140 281 -133T323 -112T357 -82T382 -45L441 -84Q427 -115
406 -139T356 -179T297 -204T232 -213Q195 -213 159 -202T95 -166T50 -106T33 -21Q33 17 43 44T71 91T111 126T159 155Q177 165 195 176T226 202T248 240T257 295H331ZM329 506V390H255V506H329Z" />
<glyph unicode="&#xc0;" glyph-name="Agrave" horiz-adv-x="677" d="M301 710H377L667 0H571L487 208H189L106 0H10L301 710ZM467 278L339 606L207 278H467ZM235 917H322L381 816L324 796L235 917Z" />
<glyph unicode="&#xc1;" glyph-name="Aacute" horiz-adv-x="677" d="M301 710H377L667 0H571L487 208H189L106 0H10L301 710ZM467 278L339 606L207 278H467ZM354 795L296 815L354 916H442L354 795Z" />
<glyph unicode="&#xc2;" glyph-name="Acircumflex" horiz-adv-x="677" d="M301 710H377L667 0H571L487 208H189L106 0H10L301 710ZM467 278L339 606L207 278H467ZM206 826L307 916H371L472 826L424 802L339 865L254 802L206 826Z" />
<glyph unicode="&#xc3;" glyph-name="Atilde" horiz-adv-x="677" d="M301 710H377L667 0H571L487 208H189L106 0H10L301 710ZM467 278L339 606L207 278H467ZM401 813Q378 813 362 819T331 834T302 848T272 855Q255 855 246 848T231 833T225 816T223 807H171Q171
813 175 830T191 865T221 896T270 910Q291 910 307 904T337 889T366 874T399 867Q418 867 429 874T446 890T453 906T455 916H507Q507 910 503 894T486 859T454 827T401 813Z" />
<glyph unicode="&#xc4;" glyph-name="Adieresis" horiz-adv-x="677" d="M301 710H377L667 0H571L487 208H189L106 0H10L301 710ZM467 278L339 606L207 278H467ZM221 811V913H295V811H221ZM383 811V913H457V811H383Z" />
<glyph unicode="&#xc5;" glyph-name="Aring" horiz-adv-x="677" d="M301 710H377L667 0H571L487 208H189L106 0H10L301 710ZM467 278L339 606L207 278H467ZM257 847Q257 879 280 897T338 916Q374 916 396 898T419 847Q419 815 397 797T338 778Q303 778 280 796T257
847ZM338 885Q321 885 310 875T298 847Q298 831 309 820T338 809Q354 809 366 819T379 847Q379 864 367 874T338 885Z" />
<glyph unicode="&#xc6;" glyph-name="AE" horiz-adv-x="961" d="M428 710H916V630H541V402H862V322H541V80H925V0H452V208H203L73 0H-25L428 710ZM446 288V605L243 288H446Z" />
<glyph unicode="&#xc7;" glyph-name="Ccedilla" horiz-adv-x="679" d="M292 -126Q305 -133 329 -139T380 -145Q407 -145 422 -137T437 -110Q437 -90 423 -83T386 -75Q365 -75 342 -79T306 -88L350 -5Q281 -1 223 32T124 116T59 231T36 360Q36 424 58 487T124 601T231
683T374 714Q469 714 537 671T638 559L567 513Q551 547 529 570T480 607T425 627T370 633Q311 633 266 609T189 545T143 456T127 356Q127 300 145 250T197 160T275 98T373 75Q401 75 430 82T487 104T537 143T576 200L651 159Q635 122 608 93T546 43T473 10T395
-5L368 -48Q376 -45 386 -44T404 -43Q439 -43 461 -59T483 -107Q483 -142 455 -162T373 -182Q343 -182 318 -177T272 -163L292 -126Z" />
<glyph unicode="&#xc8;" glyph-name="Egrave" horiz-adv-x="605" d="M567 80V0H85V710H558V630H175V400H508V325H175V80H567ZM230 917H317L376 816L319 796L230 917Z" />
<glyph unicode="&#xc9;" glyph-name="Eacute" horiz-adv-x="605" d="M349 795L291 815L349 916H437L349 795ZM567 80V0H85V710H558V630H175V400H508V325H175V80H567Z" />
<glyph unicode="&#xca;" glyph-name="Ecircumflex" horiz-adv-x="605" d="M201 826L302 916H366L467 826L419 802L334 865L249 802L201 826ZM567 80V0H85V710H558V630H175V400H508V325H175V80H567Z" />
<glyph unicode="&#xcb;" glyph-name="Edieresis" horiz-adv-x="605" d="M216 811V913H290V811H216ZM378 811V913H452V811H378ZM567 80V0H85V710H558V630H175V400H508V325H175V80H567Z" />
<glyph unicode="&#xcc;" glyph-name="Igrave" horiz-adv-x="260" d="M85 0V710H175V0H85ZM26 917H113L172 816L115 796L26 917Z" />
<glyph unicode="&#xcd;" glyph-name="Iacute" horiz-adv-x="260" d="M85 0V710H175V0H85ZM145 795L87 815L145 916H233L145 795Z" />
<glyph unicode="&#xce;" glyph-name="Icircumflex" horiz-adv-x="260" d="M85 0V710H175V0H85ZM-3 826L98 916H162L263 826L215 802L130 865L45 802L-3 826Z" />
<glyph unicode="&#xcf;" glyph-name="Idieresis" horiz-adv-x="260" d="M85 0V710H175V0H85ZM12 811V913H86V811H12ZM174 811V913H248V811H174Z" />
<glyph unicode="&#xd0;" glyph-name="Eth" horiz-adv-x="722" d="M91 0V323H34V391H91V710H337Q422 710 486 682T594 606T658 494T680 356Q680 275 656 210T587 98T479 26T337 0H91ZM589 356Q589 416 573 466T524 553T444 609T337 630H181V391H342V323H181V80H337Q398
80 445 101T524 159T572 246T589 356Z" />
<glyph unicode="&#xd1;" glyph-name="Ntilde" horiz-adv-x="770" d="M175 542V0H85V710H155L595 157V709H685V0H609L175 542ZM449 813Q426 813 410 819T379 834T350 848T320 855Q303 855 294 848T279 833T273 816T271 807H219Q219 813 223 830T239 865T269 896T318
910Q339 910 355 904T385 889T414 874T447 867Q466 867 477 874T494 890T501 906T503 916H555Q555 910 551 894T534 859T502 827T449 813Z" />
<glyph unicode="&#xd2;" glyph-name="Ograve" horiz-adv-x="748" d="M373 -5Q298 -5 237 25T131 106T63 222T39 355Q39 426 64 491T135 606T241 685T375 715Q450 715 511 684T616 601T684 486T708 354Q708 283 683 218T613 104T507 25T373 -5ZM130 355Q130 301
147 251T197 161T274 99T374 76Q431 76 476 100T552 164T600 254T617 355Q617 409 600 459T550 548T473 610T374 633Q317 633 272 609T196 546T147 457T130 355ZM271 917H358L417 816L360 796L271 917Z" />
<glyph unicode="&#xd3;" glyph-name="Oacute" horiz-adv-x="748" d="M390 795L332 815L390 916H478L390 795ZM373 -5Q298 -5 237 25T131 106T63 222T39 355Q39 426 64 491T135 606T241 685T375 715Q450 715 511 684T616 601T684 486T708 354Q708 283 683 218T613
104T507 25T373 -5ZM130 355Q130 301 147 251T197 161T274 99T374 76Q431 76 476 100T552 164T600 254T617 355Q617 409 600 459T550 548T473 610T374 633Q317 633 272 609T196 546T147 457T130 355Z" />
<glyph unicode="&#xd4;" glyph-name="Ocircumflex" horiz-adv-x="748" d="M242 826L343 916H407L508 826L460 802L375 865L290 802L242 826ZM373 -5Q298 -5 237 25T131 106T63 222T39 355Q39 426 64 491T135 606T241 685T375 715Q450 715 511 684T616 601T684
486T708 354Q708 283 683 218T613 104T507 25T373 -5ZM130 355Q130 301 147 251T197 161T274 99T374 76Q431 76 476 100T552 164T600 254T617 355Q617 409 600 459T550 548T473 610T374 633Q317 633 272 609T196 546T147 457T130 355Z" />
<glyph unicode="&#xd5;" glyph-name="Otilde" horiz-adv-x="748" d="M373 -5Q298 -5 237 25T131 106T63 222T39 355Q39 426 64 491T135 606T241 685T375 715Q450 715 511 684T616 601T684 486T708 354Q708 283 683 218T613 104T507 25T373 -5ZM130 355Q130 301
147 251T197 161T274 99T374 76Q431 76 476 100T552 164T600 254T617 355Q617 409 600 459T550 548T473 610T374 633Q317 633 272 609T196 546T147 457T130 355ZM437 813Q414 813 398 819T367 834T338 848T308 855Q291 855 282 848T267 833T261 816T259 807H207Q207
813 211 830T227 865T257 896T306 910Q327 910 343 904T373 889T402 874T435 867Q454 867 465 874T482 890T489 906T491 916H543Q543 910 539 894T522 859T490 827T437 813Z" />
<glyph unicode="&#xd6;" glyph-name="Odieresis" horiz-adv-x="748" d="M257 811V913H331V811H257ZM419 811V913H493V811H419ZM373 -5Q298 -5 237 25T131 106T63 222T39 355Q39 426 64 491T135 606T241 685T375 715Q450 715 511 684T616 601T684 486T708 354Q708
283 683 218T613 104T507 25T373 -5ZM130 355Q130 301 147 251T197 161T274 99T374 76Q431 76 476 100T552 164T600 254T617 355Q617 409 600 459T550 548T473 610T374 633Q317 633 272 609T196 546T147 457T130 355Z" />
<glyph unicode="&#xd7;" glyph-name="multiply" horiz-adv-x="464" d="M404 157L348 102L232 218L116 102L61 158L176 273L63 387L119 442L232 329L346 443L401 387L288 273L404 157Z" />
<glyph unicode="&#xd8;" glyph-name="Oslash" horiz-adv-x="748" d="M663 710L601 618Q652 565 680 496T708 354Q708 283 683 218T613 104T507 25T373 -5Q327 -5 286 6T210 40L183 0H85L146 91Q95 142 67 211T39 355Q39 426 64 491T135 606T241 685T375 715Q420
715 460 703T536 669L564 710H663ZM617 355Q617 409 600 458T552 545L256 109Q309 76 374 76Q431 76 476 100T552 164T600 254T617 355ZM130 355Q130 301 146 251T195 163L490 600Q437 633 374 633Q317 633 272 609T196 546T147 457T130 355Z" />
<glyph unicode="&#xd9;" glyph-name="Ugrave" horiz-adv-x="755" d="M377 76Q439 76 480 100T545 162T580 250T590 351V710H680V351Q680 279 664 215T611 101T518 24T378 -5Q293 -5 235 25T142 104T91 218T75 351V710H165V351Q165 298 175 249T210 161T275 100T377
76ZM274 917H361L420 816L363 796L274 917Z" />
<glyph unicode="&#xda;" glyph-name="Uacute" horiz-adv-x="755" d="M393 795L335 815L393 916H481L393 795ZM377 76Q439 76 480 100T545 162T580 250T590 351V710H680V351Q680 279 664 215T611 101T518 24T378 -5Q293 -5 235 25T142 104T91 218T75 351V710H165V351Q165
298 175 249T210 161T275 100T377 76Z" />
<glyph unicode="&#xdb;" glyph-name="Ucircumflex" horiz-adv-x="755" d="M245 826L346 916H410L511 826L463 802L378 865L293 802L245 826ZM377 76Q439 76 480 100T545 162T580 250T590 351V710H680V351Q680 279 664 215T611 101T518 24T378 -5Q293 -5 235 25T142
104T91 218T75 351V710H165V351Q165 298 175 249T210 161T275 100T377 76Z" />
<glyph unicode="&#xdc;" glyph-name="Udieresis" horiz-adv-x="755" d="M260 811V913H334V811H260ZM422 811V913H496V811H422ZM377 76Q439 76 480 100T545 162T580 250T590 351V710H680V351Q680 279 664 215T611 101T518 24T378 -5Q293 -5 235 25T142 104T91 218T75
351V710H165V351Q165 298 175 249T210 161T275 100T377 76Z" />
<glyph unicode="&#xdd;" glyph-name="Yacute" horiz-adv-x="655" d="M112 710L327 340L544 710H642L372 259V0H282V261L13 710H112ZM342 795L284 815L342 916H430L342 795Z" />
<glyph unicode="&#xde;" glyph-name="Thorn" horiz-adv-x="604" d="M363 573Q410 573 449 554T517 502T562 429T578 346Q578 302 563 261T521 188T455 137T369 118H175V0H85V710H175V573H363ZM365 198Q393 198 416 210T455 243T479 290T488 346Q488 376 478 402T450
449T409 481T359 493H175V198H365Z" />
<glyph unicode="&#xdf;" glyph-name="germandbls" horiz-adv-x="553" d="M241 75Q282 76 316 84T375 109T413 152T427 215Q427 280 386 318T276 357H257V437H275Q323 437 353 465T383 540Q383 565 374 583T350 614T316 632T275 638Q244 638 222 627T184 597T162
554T155 503V0H71V517Q71 560 86 596T129 659T195 699T278 714Q318 714 352 703T412 670T452 619T467 553Q467 526 459 502T438 457T406 422T367 402Q403 394 431 377T478 334T508 276T518 208Q518 157 498 118T440 52T352 11T241 -6V75Z" />
<glyph unicode="&#xe0;" glyph-name="agrave" horiz-adv-x="554" d="M205 -10Q168 -10 136 2T81 37T44 88T30 153Q30 189 46 218T91 269T161 302T250 314Q288 314 327 307T396 288V330Q396 394 360 430T258 467Q179 467 92 406L63 463Q164 531 266 531Q369 531
426 476T484 321V108Q484 77 512 76V0Q498 -2 489 -3T470 -4Q444 -4 429 11T410 49L408 86Q373 39 320 15T205 -10ZM228 56Q275 56 315 73T377 120Q396 139 396 159V236Q332 261 263 261Q197 261 156 233T114 160Q114 138 122 119T146 86T183 64T228 56ZM162 730H249L308
629L251 609L162 730Z" />
<glyph unicode="&#xe1;" glyph-name="aacute" horiz-adv-x="554" d="M205 -10Q168 -10 136 2T81 37T44 88T30 153Q30 189 46 218T91 269T161 302T250 314Q288 314 327 307T396 288V330Q396 394 360 430T258 467Q179 467 92 406L63 463Q164 531 266 531Q369 531
426 476T484 321V108Q484 77 512 76V0Q498 -2 489 -3T470 -4Q444 -4 429 11T410 49L408 86Q373 39 320 15T205 -10ZM228 56Q275 56 315 73T377 120Q396 139 396 159V236Q332 261 263 261Q197 261 156 233T114 160Q114 138 122 119T146 86T183 64T228 56ZM281 609L223
629L281 730H369L281 609Z" />
<glyph unicode="&#xe2;" glyph-name="acircumflex" horiz-adv-x="554" d="M205 -10Q168 -10 136 2T81 37T44 88T30 153Q30 189 46 218T91 269T161 302T250 314Q288 314 327 307T396 288V330Q396 394 360 430T258 467Q179 467 92 406L63 463Q164 531 266 531Q369
531 426 476T484 321V108Q484 77 512 76V0Q498 -2 489 -3T470 -4Q444 -4 429 11T410 49L408 86Q373 39 320 15T205 -10ZM228 56Q275 56 315 73T377 120Q396 139 396 159V236Q332 261 263 261Q197 261 156 233T114 160Q114 138 122 119T146 86T183 64T228 56ZM133
640L234 730H298L399 640L351 616L266 679L181 616L133 640Z" />
<glyph unicode="&#xe3;" glyph-name="atilde" horiz-adv-x="554" d="M205 -10Q168 -10 136 2T81 37T44 88T30 153Q30 189 46 218T91 269T161 302T250 314Q288 314 327 307T396 288V330Q396 394 360 430T258 467Q179 467 92 406L63 463Q164 531 266 531Q369 531
426 476T484 321V108Q484 77 512 76V0Q498 -2 489 -3T470 -4Q444 -4 429 11T410 49L408 86Q373 39 320 15T205 -10ZM228 56Q275 56 315 73T377 120Q396 139 396 159V236Q332 261 263 261Q197 261 156 233T114 160Q114 138 122 119T146 86T183 64T228 56ZM328 627Q305
627 289 633T258 648T229 662T199 669Q182 669 173 662T158 647T152 630T150 621H98Q98 627 102 644T118 679T148 710T197 724Q218 724 234 718T264 703T293 688T326 681Q345 681 356 688T373 704T380 720T382 730H434Q434 724 430 708T413 673T381 641T328 627Z"
/>
<glyph unicode="&#xe4;" glyph-name="adieresis" horiz-adv-x="554" d="M205 -10Q168 -10 136 2T81 37T44 88T30 153Q30 189 46 218T91 269T161 302T250 314Q288 314 327 307T396 288V330Q396 394 360 430T258 467Q179 467 92 406L63 463Q164 531 266 531Q369
531 426 476T484 321V108Q484 77 512 76V0Q498 -2 489 -3T470 -4Q444 -4 429 11T410 49L408 86Q373 39 320 15T205 -10ZM228 56Q275 56 315 73T377 120Q396 139 396 159V236Q332 261 263 261Q197 261 156 233T114 160Q114 138 122 119T146 86T183 64T228 56ZM148
624V726H222V624H148ZM310 624V726H384V624H310Z" />
<glyph unicode="&#xe5;" glyph-name="aring" horiz-adv-x="554" d="M205 -10Q168 -10 136 2T81 37T44 88T30 153Q30 189 46 218T91 269T161 302T250 314Q288 314 327 307T396 288V330Q396 394 360 430T258 467Q179 467 92 406L63 463Q164 531 266 531Q369 531
426 476T484 321V108Q484 77 512 76V0Q498 -2 489 -3T470 -4Q444 -4 429 11T410 49L408 86Q373 39 320 15T205 -10ZM228 56Q275 56 315 73T377 120Q396 139 396 159V236Q332 261 263 261Q197 261 156 233T114 160Q114 138 122 119T146 86T183 64T228 56ZM184 661Q184
693 207 711T265 730Q301 730 323 712T346 661Q346 629 324 611T265 592Q230 592 207 610T184 661ZM265 699Q248 699 237 689T225 661Q225 645 236 634T265 623Q281 623 293 633T306 661Q306 678 294 688T265 699Z" />
<glyph unicode="&#xe6;" glyph-name="ae" horiz-adv-x="933" d="M204 -10Q167 -10 136 2T81 37T44 88T30 153Q30 189 46 218T91 269T160 302T249 314Q283 314 316 309T378 294Q380 310 383 328T392 360Q384 411 350 439T257 467Q179 467 91 406L62 463Q165 531
265 531Q329 531 375 506T446 436Q479 479 529 505T641 531Q700 531 749 510T832 451T886 365T906 261Q906 255 906 246T904 231H461Q464 192 480 160T521 105T578 69T647 56Q671 56 694 62T737 80T772 107T796 143L872 122Q859 93 837 69T785 28T719 0T644 -10Q573
-10 517 21T426 103Q409 73 383 52T327 17T265 -3T204 -10ZM227 56Q275 56 315 73T377 120Q394 137 396 155Q388 172 384 197T378 242Q351 251 321 256T262 261Q196 261 155 233T113 160Q113 138 122 119T146 86T182 64T227 56ZM822 288Q819 327 804 359T765 415T709
452T640 465Q603 465 571 452T515 416T477 360T460 288H822Z" />
<glyph unicode="&#xe7;" glyph-name="ccedilla" horiz-adv-x="554" d="M224 -126Q237 -133 261 -139T312 -145Q339 -145 354 -137T369 -110Q369 -90 355 -83T318 -75Q297 -75 274 -79T238 -88L280 -9Q226 -5 181 18T104 78T54 162T36 262Q36 317 55 366T109 451T192
509T301 531Q379 531 435 497T521 404L435 377Q415 414 379 434T299 455Q263 455 231 441T176 400T140 339T126 262Q126 221 140 185T177 123T232 81T300 66Q323 66 345 72T386 90T419 115T439 147L525 121Q503 67 450 32T325 -9L300 -48Q308 -45 318 -44T336 -43Q371
-43 393 -59T415 -107Q415 -142 387 -162T305 -182Q275 -182 250 -177T204 -163L224 -126Z" />
<glyph unicode="&#xe8;" glyph-name="egrave" horiz-adv-x="591" d="M302 -10Q243 -10 194 11T110 70T56 156T36 261Q36 316 55 365T110 451T195 509T303 531Q362 531 410 509T493 451T545 366T564 265Q564 254 564 245T562 231H129Q132 192 147 160T186 105T240
69T305 56Q329 56 352 62T395 80T430 107T454 143L530 122Q517 93 495 69T443 28T377 0T302 -10ZM481 296Q478 333 463 364T424 418T369 452T303 465Q268 465 237 453T183 418T145 364T127 296H481ZM195 730H282L341 629L284 609L195 730Z" />
<glyph unicode="&#xe9;" glyph-name="eacute" horiz-adv-x="591" d="M314 609L256 629L314 730H402L314 609ZM302 -10Q243 -10 194 11T110 70T56 156T36 261Q36 316 55 365T110 451T195 509T303 531Q362 531 410 509T493 451T545 366T564 265Q564 254 564 245T562
231H129Q132 192 147 160T186 105T240 69T305 56Q329 56 352 62T395 80T430 107T454 143L530 122Q517 93 495 69T443 28T377 0T302 -10ZM481 296Q478 333 463 364T424 418T369 452T303 465Q268 465 237 453T183 418T145 364T127 296H481Z" />
<glyph unicode="&#xea;" glyph-name="ecircumflex" horiz-adv-x="591" d="M166 640L267 730H331L432 640L384 616L299 679L214 616L166 640ZM302 -10Q243 -10 194 11T110 70T56 156T36 261Q36 316 55 365T110 451T195 509T303 531Q362 531 410 509T493 451T545
366T564 265Q564 254 564 245T562 231H129Q132 192 147 160T186 105T240 69T305 56Q329 56 352 62T395 80T430 107T454 143L530 122Q517 93 495 69T443 28T377 0T302 -10ZM481 296Q478 333 463 364T424 418T369 452T303 465Q268 465 237 453T183 418T145 364T127
296H481Z" />
<glyph unicode="&#xeb;" glyph-name="edieresis" horiz-adv-x="591" d="M181 624V726H255V624H181ZM343 624V726H417V624H343ZM302 -10Q243 -10 194 11T110 70T56 156T36 261Q36 316 55 365T110 451T195 509T303 531Q362 531 410 509T493 451T545 366T564 265Q564
254 564 245T562 231H129Q132 192 147 160T186 105T240 69T305 56Q329 56 352 62T395 80T430 107T454 143L530 122Q517 93 495 69T443 28T377 0T302 -10ZM481 296Q478 333 463 364T424 418T369 452T303 465Q268 465 237 453T183 418T145 364T127 296H481Z" />
<glyph unicode="&#xec;" glyph-name="igrave" horiz-adv-x="230" d="M71 0V522H159V0H71ZM11 730H98L157 629L100 609L11 730Z" />
<glyph unicode="&#xed;" glyph-name="iacute" horiz-adv-x="230" d="M130 609L72 629L130 730H218L130 609ZM71 0V522H159V0H71Z" />
<glyph unicode="&#xee;" glyph-name="icircumflex" horiz-adv-x="230" d="M-18 640L83 730H147L248 640L200 616L115 679L30 616L-18 640ZM71 0V522H159V0H71Z" />
<glyph unicode="&#xef;" glyph-name="idieresis" horiz-adv-x="230" d="M-3 624V726H71V624H-3ZM159 624V726H233V624H159ZM71 0V522H159V0H71Z" />
<glyph unicode="&#xf0;" glyph-name="eth" horiz-adv-x="606" d="M505 676L427 630Q466 589 492 545T535 456T559 370T566 290Q566 220 545 165T486 70T400 11T297 -10Q244 -10 197 9T115 60T60 137T39 233Q39 282 58 325T110 402T187 454T283 473Q346 473 397
445T476 368Q466 428 440 484T360 596L253 532L226 569L325 628Q266 680 177 730H301Q352 700 394 662L478 713L505 676ZM129 233Q129 198 142 168T179 115T233 79T300 66Q337 66 369 80T425 117T462 172T476 239Q476 273 463 303T426 354T371 388T304 401Q267
401 235 388T180 352T143 299T129 233Z" />
<glyph unicode="&#xf1;" glyph-name="ntilde" horiz-adv-x="590" d="M524 0H436V292Q436 376 411 414T333 452Q306 452 279 442T228 413T186 370T159 315V0H71V522H151V410Q182 465 240 498T368 531Q413 531 443 515T491 469T516 399T524 312V0ZM365 627Q342 627
326 633T295 648T266 662T236 669Q219 669 210 662T195 647T189 630T187 621H135Q135 627 139 644T155 679T185 710T234 724Q255 724 271 718T301 703T330 688T363 681Q382 681 393 688T410 704T417 720T419 730H471Q471 724 467 708T450 673T418 641T365 627Z"
/>
<glyph unicode="&#xf2;" glyph-name="ograve" horiz-adv-x="599" d="M299 -10Q240 -10 192 12T109 71T55 157T36 260Q36 315 55 364T109 450T192 509T299 531Q357 531 406 509T489 450T543 364T563 260Q563 206 544 157T490 71T407 12T299 -10ZM126 259Q126 218
139 183T176 122T231 81T299 66Q335 66 366 81T422 122T459 184T473 261Q473 301 460 336T422 398T367 440T299 455Q263 455 232 440T177 398T140 336T126 259ZM196 730H283L342 629L285 609L196 730Z" />
<glyph unicode="&#xf3;" glyph-name="oacute" horiz-adv-x="599" d="M314 609L256 629L314 730H402L314 609ZM299 -10Q240 -10 192 12T109 71T55 157T36 260Q36 315 55 364T109 450T192 509T299 531Q357 531 406 509T489 450T543 364T563 260Q563 206 544 157T490
71T407 12T299 -10ZM126 259Q126 218 139 183T176 122T231 81T299 66Q335 66 366 81T422 122T459 184T473 261Q473 301 460 336T422 398T367 440T299 455Q263 455 232 440T177 398T140 336T126 259Z" />
<glyph unicode="&#xf4;" glyph-name="ocircumflex" horiz-adv-x="599" d="M166 640L267 730H331L432 640L384 616L299 679L214 616L166 640ZM299 -10Q240 -10 192 12T109 71T55 157T36 260Q36 315 55 364T109 450T192 509T299 531Q357 531 406 509T489 450T543
364T563 260Q563 206 544 157T490 71T407 12T299 -10ZM126 259Q126 218 139 183T176 122T231 81T299 66Q335 66 366 81T422 122T459 184T473 261Q473 301 460 336T422 398T367 440T299 455Q263 455 232 440T177 398T140 336T126 259Z" />
<glyph unicode="&#xf5;" glyph-name="otilde" horiz-adv-x="599" d="M299 -10Q240 -10 192 12T109 71T55 157T36 260Q36 315 55 364T109 450T192 509T299 531Q357 531 406 509T489 450T543 364T563 260Q563 206 544 157T490 71T407 12T299 -10ZM126 259Q126 218
139 183T176 122T231 81T299 66Q335 66 366 81T422 122T459 184T473 261Q473 301 460 336T422 398T367 440T299 455Q263 455 232 440T177 398T140 336T126 259ZM362 627Q339 627 323 633T292 648T263 662T233 669Q216 669 207 662T192 647T186 630T184 621H132Q132
627 136 644T152 679T182 710T231 724Q252 724 268 718T298 703T327 688T360 681Q379 681 390 688T407 704T414 720T416 730H468Q468 724 464 708T447 673T415 641T362 627Z" />
<glyph unicode="&#xf6;" glyph-name="odieresis" horiz-adv-x="599" d="M181 624V726H255V624H181ZM343 624V726H417V624H343ZM299 -10Q240 -10 192 12T109 71T55 157T36 260Q36 315 55 364T109 450T192 509T299 531Q357 531 406 509T489 450T543 364T563 260Q563
206 544 157T490 71T407 12T299 -10ZM126 259Q126 218 139 183T176 122T231 81T299 66Q335 66 366 81T422 122T459 184T473 261Q473 301 460 336T422 398T367 440T299 455Q263 455 232 440T177 398T140 336T126 259Z" />
<glyph unicode="&#xf7;" glyph-name="divide" horiz-adv-x="533" d="M229 405V507H304V405H229ZM229 66V168H304V66H229ZM65 251V323H468V251H65Z" />
<glyph unicode="&#xf8;" glyph-name="oslash" horiz-adv-x="599" d="M80 -2L125 54Q83 92 60 145T36 260Q36 315 55 364T109 450T192 509T299 531Q338 531 373 521T437 493L461 524H517L472 467Q515 429 539 375T563 260Q563 206 544 157T490 71T407 12T299 -10Q221
-10 159 29L135 -2H80ZM299 66Q335 66 366 81T422 122T459 184T473 261Q473 303 459 338T420 400L208 94Q248 66 299 66ZM126 259Q126 217 140 182T178 120L389 427Q369 440 347 447T299 455Q263 455 232 440T177 398T140 336T126 259Z" />
<glyph unicode="&#xf9;" glyph-name="ugrave" horiz-adv-x="601" d="M232 -10Q150 -10 108 45T66 209V522H154V226Q154 66 265 66Q319 66 366 100T437 195V522H525V108Q525 77 553 76V0Q538 -2 530 -2T513 -3Q487 -3 470 12T451 51L449 112Q414 53 357 22T232
-10ZM191 730H278L337 629L280 609L191 730Z" />
<glyph unicode="&#xfa;" glyph-name="uacute" horiz-adv-x="601" d="M309 609L251 629L309 730H397L309 609ZM232 -10Q150 -10 108 45T66 209V522H154V226Q154 66 265 66Q319 66 366 100T437 195V522H525V108Q525 77 553 76V0Q538 -2 530 -2T513 -3Q487 -3 470
12T451 51L449 112Q414 53 357 22T232 -10Z" />
<glyph unicode="&#xfb;" glyph-name="ucircumflex" horiz-adv-x="601" d="M161 640L262 730H326L427 640L379 616L294 679L209 616L161 640ZM232 -10Q150 -10 108 45T66 209V522H154V226Q154 66 265 66Q319 66 366 100T437 195V522H525V108Q525 77 553 76V0Q538
-2 530 -2T513 -3Q487 -3 470 12T451 51L449 112Q414 53 357 22T232 -10Z" />
<glyph unicode="&#xfc;" glyph-name="udieresis" horiz-adv-x="601" d="M176 624V726H250V624H176ZM338 624V726H412V624H338ZM232 -10Q150 -10 108 45T66 209V522H154V226Q154 66 265 66Q319 66 366 100T437 195V522H525V108Q525 77 553 76V0Q538 -2 530 -2T513
-3Q487 -3 470 12T451 51L449 112Q414 53 357 22T232 -10Z" />
<glyph unicode="&#xfd;" glyph-name="yacute" horiz-adv-x="545" d="M95 -142Q108 -144 121 -145T141 -146Q153 -146 162 -141T181 -119T203 -75T233 0L12 522H103L281 79L443 522H527L273 -137Q259 -172 227 -198T137 -225Q128 -225 119 -224T95 -220V-142ZM296
609L238 629L296 730H384L296 609Z" />
<glyph unicode="&#xfe;" glyph-name="thorn" horiz-adv-x="603" d="M568 257Q567 203 547 153T492 65T411 5T310 -18Q258 -18 219 5T161 60V-213H71V710H161V449Q185 483 222 508T319 534Q377 534 423 510T501 445T550 356T568 257ZM478 258Q478 297 467 332T434
395T382 438T314 454Q287 454 264 445T222 421T188 386T161 344V173Q161 152 175 132T211 97T258 72T308 62Q345 62 376 78T430 122T465 184T478 258Z" />
<glyph unicode="&#xff;" glyph-name="ydieresis" horiz-adv-x="545" d="M95 -142Q108 -144 121 -145T141 -146Q153 -146 162 -141T181 -119T203 -75T233 0L12 522H103L281 79L443 522H527L273 -137Q259 -172 227 -198T137 -225Q128 -225 119 -224T95 -220V-142ZM163
624V726H237V624H163ZM325 624V726H399V624H325Z" />
<glyph unicode="&#x2013;" glyph-name="endash" horiz-adv-x="582" d="M64 233V313H518V233H64Z" />
<glyph unicode="&#x2014;" glyph-name="emdash" horiz-adv-x="911" d="M64 233V313H847V233H64Z" />
<glyph unicode="&#x2018;" glyph-name="quoteleft" horiz-adv-x="207" d="M135 730L115 615H145V501H62V615L92 730H135Z" />
<glyph unicode="&#x2019;" glyph-name="quoteright" horiz-adv-x="200" d="M71 501L91 616H61V730H144V616L114 501H71Z" />
<glyph unicode="&#x201a;" glyph-name="quotesinglbase" horiz-adv-x="211" d="M74 -115L94 0H64V114H147V0L117 -115H74Z" />
<glyph unicode="&#x201c;" glyph-name="quotedblleft" horiz-adv-x="345" d="M135 730L115 615H145V501H62V615L92 730H135ZM273 730L253 615H283V501H200V615L230 730H273Z" />
<glyph unicode="&#x201d;" glyph-name="quotedblright" horiz-adv-x="338" d="M71 501L91 616H61V730H144V616L114 501H71ZM209 501L229 616H199V730H282V616L252 501H209Z" />
<glyph unicode="&#x201e;" glyph-name="quotedblbase" horiz-adv-x="349" d="M74 -115L94 0H64V114H147V0L117 -115H74ZM212 -115L232 0H202V114H285V0L255 -115H212Z" />
<glyph unicode="&#x2022;" glyph-name="bullet" horiz-adv-x="356" d="M272 347Q272 327 265 310T245 281T215 261T178 253Q159 253 142 260T112 280T92 310T84 347Q84 366 91 383T112 413T142 433T178 441Q197 441 214 434T244 413T264 383T272 347Z" />
<glyph unicode="&#x2039;" glyph-name="guilsinglleft" horiz-adv-x="354" d="M40 280L293 461V387L111 259L293 134V60L40 234V280Z" />
<glyph unicode="&#x203a;" glyph-name="guilsinglright" horiz-adv-x="354" d="M314 234L61 60V134L243 259L61 387V461L314 280V234Z" />
</font>
</defs>
</svg>
