<?xml version="1.0" standalone="no"?>
<!DOCTYPE svg PUBLIC "-//W3C//DTD SVG 1.1//EN" "http://www.w3.org/Graphics/SVG/1.1/DTD/svg11.dtd">
<svg xmlns="http://www.w3.org/2000/svg">
<defs >
<font id="UbuntuMono" horiz-adv-x="500" ><font-face
    font-family="Ubuntu Mono"
    units-per-em="1000"
    panose-1="2 11 8 9 3 6 2 3 2 4"
    ascent="830"
    descent="-170"
    alphabetic="0" />
<glyph unicode=" " glyph-name="space" />
<glyph unicode="!" glyph-name="exclam" d="M321 455Q321 419 320 391T316 336T310 283T302 225H200Q195 257 192 283T185 336T181 390T179 455V619H321V455ZM333 71Q333 32 308 10T250 -12Q218 -12 193 10T167 71Q167 109 192 131T250 153Q282 153 307 131T333 71Z" />
<glyph unicode="&quot;" glyph-name="quotedbl" d="M415 679V630Q415 605 413 576T406 515T396 454T386 398H314Q309 424 304 454T295 515T287 576T284 631V679H415ZM218 679V630Q218 605 216 576T209 515T199 454T188 398H117Q112 424 107 454T98 515T90 576T87
631V679H218Z" />
<glyph unicode="#" glyph-name="numbersign" d="M138 467L167 619H269L239 467H319L348 619H450L421 467H483V365H401L380 255H483V153H361L332 0H230L259 153H179L151 0H49L78 153H18V255H97L118 365H18V467H138ZM199 255H279L299 365H220L199 255Z" />
<glyph unicode="$" glyph-name="dollar" d="M193 9Q130 15 92 29T34 54L72 152Q104 137 147 125T238 112Q294 112 316 126T338 172Q338 190 330 203T305 226T264 245T210 265Q181 275 153 288T103 319T68 364T54 430Q54 458 61 484T85 532T129 570T195 596V693H309V601Q355
597 390 587T446 569L418 466Q389 478 350 487T268 497Q220 497 202 480T183 440Q183 424 189 414T209 395T242 380T287 363Q326 348 359 332T416 294T453 243T467 175Q467 148 459 122T433 73T384 34T307 10V-97H193V9Z" />
<glyph unicode="%" glyph-name="percent" d="M91 0H2L409 619H498L91 0ZM265 142Q265 218 295 257T377 297Q430 297 460 258T490 142Q490 66 460 27T377 -13Q325 -13 295 26T265 142ZM410 142Q410 184 400 202T376 220Q362 220 354 202T345 142Q345 100 353 83T376
66Q390 66 400 83T410 142ZM10 478Q10 554 40 593T121 633Q175 633 205 594T235 478Q235 402 205 362T121 322Q70 322 40 362T10 478ZM154 478Q154 520 144 537T121 555Q107 555 98 538T89 478Q89 436 98 419T121 402Q134 402 144 419T154 478Z" />
<glyph unicode="&amp;" glyph-name="ampersand" d="M365 0Q354 29 341 53Q307 23 271 8T200 -8Q155 -8 122 6T66 43T32 98T21 163Q21 211 45 254T119 328Q95 361 80 397T64 472Q64 512 78 542T115 593T166 623T225 633Q253 633 280 624T328 598T362 554T375 492Q375
444 346 399T255 321Q275 297 297 272T342 221Q356 272 357 342L459 329Q458 273 445 225T410 138Q434 105 453 70T482 0H365ZM292 125Q264 160 234 193T175 258Q153 243 140 222T126 169Q126 135 143 110T203 85Q226 85 249 94T292 125ZM170 478Q170 456 179 434T204
387Q236 405 253 434T270 491Q270 517 258 530T225 544Q200 544 185 527T170 478Z" />
<glyph unicode="&apos;" glyph-name="quotesingle" d="M317 679V613Q317 588 315 559T308 498T298 437T288 380H216Q211 406 206 436T197 498T189 558T186 613V679H317Z" />
<glyph unicode="(" glyph-name="parenleft" d="M208 266Q208 143 262 53T413 -94L356 -170Q220 -95 157 17T94 266Q94 404 159 519T360 710L417 634Q321 578 265 484T208 266Z" />
<glyph unicode=")" glyph-name="parenright" d="M294 266Q294 390 238 484T85 634L142 710Q278 635 343 520T408 266Q408 129 345 17T146 -170L89 -94Q185 -38 239 52T294 266Z" />
<glyph unicode="*" glyph-name="asterisk" d="M252 374Q249 362 243 345T231 311T217 279T202 254L183 229L89 296L108 321Q115 331 127 343T153 367T181 389T205 407Q192 407 175 407T139 408T104 413T76 420L46 430L83 539L113 530Q124 526 139 518T169 499T198
479T223 461Q219 473 214 489T205 524T197 559T194 588V619H310V588Q310 576 307 559T300 524T290 490T280 461Q290 468 305 478T335 497T366 515T393 527L422 537L458 426L428 417Q416 413 399 411T364 408T329 406T298 406Q309 399 323 389T351 367T377 343T396
321L415 296L321 228L303 253Q296 263 289 278T274 310T262 344T252 374Z" />
<glyph unicode="+" glyph-name="plus" d="M40 313H197V487H303V313H460V212H303V38H197V212H40V313Z" />
<glyph unicode="," glyph-name="comma" d="M126 -73Q144 -69 162 -66T197 -57T227 -40T248 -10Q210 -6 189 20T168 78Q168 117 193 142T258 167Q300 167 323 139T347 63Q347 28 336 -7T301 -72T237 -124T142 -153L126 -73Z" />
<glyph unicode="-" glyph-name="hyphen" d="M113 317H387V196H113V317Z" />
<glyph unicode="." glyph-name="period" d="M340 79Q340 35 313 12T251 -11Q233 -11 217 -5T189 12T169 40T161 79Q161 100 168 116T188 144T217 161T251 167Q286 167 313 144T340 79Z" />
<glyph unicode="/" glyph-name="slash" d="M175 -165H47L327 699H453L175 -165Z" />
<glyph unicode="0" glyph-name="zero" d="M465 311Q465 147 410 67T250 -13Q145 -13 90 67T35 311Q35 473 91 553T250 633Q355 633 410 554T465 311ZM354 311Q354 417 328 472T250 528Q200 528 173 473T146 311Q146 204 173 149T250 93Q301 93 327 148T354 311ZM306
321Q306 294 291 275T251 255Q225 255 210 274T195 321Q195 348 210 368T251 388Q275 388 290 368T306 321Z" />
<glyph unicode="1" glyph-name="one" d="M213 102V448Q185 428 149 413T88 388L48 490Q72 499 100 513T156 544T209 580T252 619H336V102H459V0H83V102H213Z" />
<glyph unicode="2" glyph-name="two" d="M434 456Q434 424 422 395T390 337T345 283T294 233Q281 221 264 205T232 171T207 135T196 102H462V0H58Q55 10 55 25T56 46Q56 96 74 138T121 215T182 281T243 340T290 394T309 447Q309 485 286 505T228 526Q199 526 167
512T104 465L43 551Q83 593 135 613T240 633Q278 633 313 622T375 589T418 534T434 456Z" />
<glyph unicode="3" glyph-name="three" d="M213 -13Q190 -13 165 -10T116 -1T72 10T41 21L65 124Q88 114 124 103T212 92Q275 92 300 119T326 186Q326 235 287 254T188 274H150V376H196Q215 376 234 380T268 393T292 417T302 455Q302 489 282 508T225 528Q190
528 156 517T96 488L52 578Q79 596 123 614T224 633Q276 633 314 620T378 584T415 528T427 459Q427 422 406 388T350 336Q398 316 424 277T451 184Q451 141 437 105T394 43T320 2T213 -13Z" />
<glyph unicode="4" glyph-name="four" d="M285 465Q267 442 248 416T211 362T175 304T145 247H285V465ZM408 619V247H475V146H408V0H285V146H27V236Q46 275 76 324T142 426T218 528T298 619H408Z" />
<glyph unicode="5" glyph-name="five" d="M321 182Q321 208 313 229T279 266T206 290T83 299Q93 383 99 463T108 619H424V517H211Q209 485 206 450T201 393Q325 385 386 333T447 187Q447 144 432 108T386 44T309 2T202 -13Q178 -13 153 -10T105 -3T64 8T35 19L60
121Q82 110 116 101T201 92Q237 92 260 100T297 120T316 149T321 182Z" />
<glyph unicode="6" glyph-name="six" d="M241 294Q222 294 202 290T169 279Q168 270 168 261T167 242Q167 213 171 187T185 139T212 106T256 93Q277 93 292 103T316 128T330 161T335 196Q335 243 314 268T241 294ZM257 396Q311 396 348 380T410 337T444 274T455
198Q455 162 444 125T408 57T347 7T259 -13Q155 -13 101 51T46 253Q46 343 72 412T148 528T266 599T419 623L426 518Q386 517 348 510T278 487T223 444T188 379Q207 387 225 391T257 396Z" />
<glyph unicode="7" glyph-name="seven" d="M132 0Q135 64 153 135T196 277T252 409T309 517H49V619H453V526Q426 495 394 439T334 312T284 161T257 0H132Z" />
<glyph unicode="8" glyph-name="eight" d="M446 472Q446 429 425 388T359 318Q416 285 439 246T463 160Q463 130 452 99T415 44T348 3T247 -13Q200 -13 162 -2T96 31T53 84T38 155Q38 202 60 243T129 317Q85 347 69 381T53 453Q53 483 63 515T97 574T158 617T252
634Q341 634 393 590T446 472ZM347 162Q347 182 340 197T316 224T273 249T211 276Q183 253 168 225T153 170Q153 130 181 110T249 89Q294 89 320 110T347 162ZM250 532Q218 532 194 514T169 461Q169 426 192 404T273 358Q304 381 317 408T330 462Q330 497 307 514T250
532Z" />
<glyph unicode="9" glyph-name="nine" d="M261 329Q280 329 301 333T335 344Q336 352 336 363T337 386Q337 411 333 436T318 483T290 517T246 530Q224 530 209 522T184 499T170 466T165 426Q165 379 187 354T261 329ZM245 227Q191 227 153 242T91 285T56 347T45
424Q45 460 57 497T94 565T156 615T243 635Q347 635 402 565T457 370Q457 280 431 211T357 94T240 23T87 -2L83 104Q163 105 226 138T315 244Q276 227 245 227Z" />
<glyph unicode=":" glyph-name="colon" d="M340 79Q340 35 313 12T251 -11Q233 -11 217 -5T189 12T169 40T161 79Q161 100 168 116T188 144T217 161T251 167Q286 167 313 144T340 79ZM340 382Q340 338 313 315T251 292Q233 292 217 298T189 315T169 343T161 382Q161
403 168 419T188 447T217 464T251 470Q286 470 313 447T340 382Z" />
<glyph unicode=";" glyph-name="semicolon" d="M374 -73Q392 -69 410 -66T445 -57T475 -40T496 -10Q458 -6 437 20T416 78Q416 117 441 142T506 167Q548 167 571 139T595 63Q595 28 584 -7T549 -72T485 -124T390 -153L374 -73ZM340 382Q340 338 313 315T251 292Q233
292 217 298T189 315T169 343T161 382Q161 403 168 419T188 447T217 464T251 470Q286 470 313 447T340 382Z" />
<glyph unicode="&lt;" glyph-name="less" d="M45 313L429 474L463 366L183 257L463 148L429 40L45 202V313Z" />
<glyph unicode="=" glyph-name="equal" d="M40 411H460V309H40V411ZM40 216H460V114H40V216Z" />
<glyph unicode="&gt;" glyph-name="greater" d="M459 201L75 39L40 147L321 256L40 365L75 473L459 312V201Z" />
<glyph unicode="?" glyph-name="question" d="M166 225Q165 230 165 240Q165 280 186 316T241 381Q264 400 284 421T304 468Q304 498 283 513T230 529Q198 529 168 520T103 493L69 587Q104 609 151 621T244 633Q301 633 338 618T396 579T425 529T434 476Q434 447
423 423T394 378T356 339T319 302T290 265T278 225H166ZM313 71Q313 32 288 10T230 -12Q214 -12 199 -7T172 10T153 36T146 71Q146 90 153 105T172 131T199 147T230 153Q246 153 261 148T287 132T306 106T313 71Z" />
<glyph unicode="@" glyph-name="at" d="M468 55Q441 44 406 39T344 33Q306 33 274 44T217 80T180 144T166 241Q166 283 173 320T199 384T245 428T316 444Q335 444 363 439V455Q363 493 339 519T269 546Q236 546 207 532T156 483T122 390T109 242Q109 172 119 118T155
28T223 -28T329 -47Q376 -47 403 -42T438 -34L449 -121Q432 -125 418 -127T390 -131T362 -134T329 -135Q263 -135 206 -117T108 -55T42 63T18 248Q18 356 38 429T94 548T174 613T269 633Q310 633 346 621T409 581T452 511T468 405V55ZM271 247Q271 228 273 208T283
172T302 146T335 135Q348 135 363 138V338Q355 340 348 341T334 342Q315 342 303 334T284 312T274 281T271 247Z" />
<glyph unicode="A" glyph-name="A" d="M359 0L330 143H165L137 0H9Q53 183 98 333T185 619H319Q363 483 406 331T491 0H359ZM249 499Q239 464 231 433T215 371T201 309T188 245H309Q303 278 297 309T284 370T268 432T249 499Z" />
<glyph unicode="B" glyph-name="B" d="M469 187Q469 131 450 94T399 34T322 2T226 -8Q185 -8 141 -4T54 10V611Q89 617 131 621T214 626Q284 626 328 612T397 574T431 521T440 463Q440 419 419 385T361 331Q424 308 446 269T469 187ZM177 271V103Q190 101 205
100T236 99Q257 99 277 102T312 115T338 142T348 187Q348 232 320 251T243 271H177ZM225 373Q272 373 296 393T320 450Q320 472 313 485T294 506T266 516T233 519Q219 519 204 518T177 515V373H225Z" />
<glyph unicode="C" glyph-name="C" d="M296 -13Q165 -13 96 71T27 310Q27 387 48 447T106 548T195 611T308 633Q341 633 367 628T414 615T447 600T468 588L436 490Q413 505 381 515T306 526Q277 526 250 516T201 481T166 415T152 313Q152 207 188 151T308 94Q356
94 387 105T438 127L469 30Q443 14 399 1T296 -13Z" />
<glyph unicode="D" glyph-name="D" d="M177 100Q182 99 188 99T199 99Q241 99 269 115T315 159T340 225T348 310Q348 350 342 388T321 455T280 501T213 519Q205 519 195 519T177 516V100ZM473 310Q473 224 452 164T392 65T302 10T186 -8Q153 -8 122 -5T54 7V611Q96
620 133 623T202 626Q263 626 313 608T399 552T453 454T473 310Z" />
<glyph unicode="E" glyph-name="E" d="M63 0V619H438V517H186V378H405V276H186V102H460V0H63Z" />
<glyph unicode="F" glyph-name="F" d="M63 0V619H442V517H186V367H410V265H186V0H63Z" />
<glyph unicode="G" glyph-name="G" d="M312 526Q268 526 238 510T189 466T161 398T152 310Q152 199 187 147T290 94Q301 94 314 95T338 98V324H461V15Q439 7 393 -3T280 -13Q222 -13 176 7T96 68T45 169T27 310Q27 389 48 449T105 551T190 612T295 633Q331 633
359 628T409 615T443 600T464 588L432 490Q410 504 378 515T312 526Z" />
<glyph unicode="H" glyph-name="H" d="M455 619V0H332V273H168V0H45V619H168V375H332V619H455Z" />
<glyph unicode="I" glyph-name="I" d="M54 0V102H189V517H54V619H447V517H313V102H447V0H54Z" />
<glyph unicode="J" glyph-name="J" d="M438 207Q438 162 427 122T389 52T320 5T218 -13Q155 -13 113 3T42 42L89 140Q114 124 144 109T207 94Q255 94 284 119T314 214V517H107V619H438V207Z" />
<glyph unicode="K" glyph-name="K" d="M350 0Q339 35 319 75T273 154T221 226T168 283V0H45V619H168V362Q190 390 214 424T259 492T299 559T329 619H468Q454 592 435 558T390 486T337 409T277 334Q308 304 340 265T400 182T452 91T489 0H350Z" />
<glyph unicode="L" glyph-name="L" d="M460 0H71V619H195V102H460V0Z" />
<glyph unicode="M" glyph-name="M" d="M161 619Q168 598 178 565T201 494T225 417T248 345Q260 382 273 421T298 497T320 566T338 619H440Q447 538 453 461T464 309T472 157T477 0H364L370 481L294 219H204L131 481L136 0H23Q26 76 29 158T37 321T46 478T59 619H161Z" />
<glyph unicode="N" glyph-name="N" d="M355 0Q313 103 264 205T157 411V0H46V619H145Q173 575 201 524T255 421T304 322T343 238V619H454V0H355Z" />
<glyph unicode="O" glyph-name="O" d="M152 310Q152 265 155 226T169 157T199 111T250 94Q281 94 300 111T330 157T344 226T348 310Q348 355 345 394T331 463T301 509T250 526Q218 526 199 509T170 463T156 394T152 310ZM27 310Q27 470 86 551T250 633Q359 633
416 552T473 310Q473 150 415 69T251 -13Q142 -13 85 68T27 310Z" />
<glyph unicode="P" glyph-name="P" d="M224 626Q342 626 407 578T472 419Q472 308 407 259T221 209H177V0H54V611Q72 615 94 618T140 622T185 625T224 626ZM238 519Q227 519 208 519T177 516V316H227Q286 316 316 339T346 420Q346 474 317 496T238 519Z" />
<glyph unicode="Q" glyph-name="Q" d="M27 307Q27 467 86 548T250 630Q359 630 416 549T473 307Q473 167 428 87T298 -11Q309 -36 351 -52T468 -82L442 -170Q325 -154 266 -117T195 -9Q114 11 71 90T27 307ZM152 307Q152 262 155 223T169 155T199 108T250 91Q281
91 300 108T330 154T344 223T348 307Q348 352 345 391T331 460T301 506T250 523Q218 523 199 506T170 460T156 391T152 307Z" />
<glyph unicode="R" glyph-name="R" d="M214 626Q267 626 310 614T384 577T431 514T448 423Q448 369 426 325T353 258Q370 232 389 201T426 135T460 66T489 0H360Q337 60 307 115T241 228H177V0H54V610Q72 614 93 617T137 622T179 625T214 626ZM323 424Q323 473
293 496T214 519Q207 519 197 519T177 516V330H204Q267 330 295 354T323 424Z" />
<glyph unicode="S" glyph-name="S" d="M232 90Q263 90 283 96T316 114T332 140T337 170Q337 189 326 204T298 230T260 251T218 269Q190 279 160 292T106 325T65 374T49 448Q49 535 105 584T261 633Q318 633 360 620T432 591L396 496Q371 510 341 520T270 530Q172
530 172 459Q172 441 182 428T207 404T242 385T281 370Q310 359 341 346T399 310T443 254T460 169Q460 82 404 35T232 -13Q155 -13 109 3T40 34L76 134Q103 118 140 104T232 90Z" />
<glyph unicode="T" glyph-name="T" d="M475 619V517H312V0H188V517H25V619H475Z" />
<glyph unicode="U" glyph-name="U" d="M248 -13Q188 -13 148 3T83 51T49 126T39 224V619H163V232Q163 193 167 167T180 124T207 101T250 94Q276 94 293 101T320 124T334 167T338 233V619H461V224Q461 170 451 126T416 51T350 4T248 -13Z" />
<glyph unicode="V" glyph-name="V" d="M186 0Q162 69 135 156T84 329T41 493T13 619H143Q149 571 161 508T187 377T218 244T251 126Q267 177 283 242T313 375T339 507T359 619H488Q476 559 459 485T419 330T369 164T313 0H186Z" />
<glyph unicode="W" glyph-name="W" d="M296 400Q300 381 308 353T325 291T346 218T369 138Q369 190 368 249T366 371T364 496T363 619H477Q474 543 471 463T464 303T455 146T442 0H340Q318 63 296 135T252 274Q230 211 206 137T162 0H60Q52 69 46 146T36 303T28
463T23 619H137Q136 560 135 497T133 372T131 250T130 138Q139 170 150 208T172 283T192 351T206 400H296Z" />
<glyph unicode="X" glyph-name="X" d="M356 0Q337 51 310 113T252 237Q223 178 194 115T144 0H11Q21 27 40 65T83 147T133 237T183 327L21 619H154L252 421L355 619H479L321 330Q348 287 374 240T422 149T462 66T489 0H356Z" />
<glyph unicode="Y" glyph-name="Y" d="M254 336Q265 359 279 394T308 468T336 547T361 619H488Q469 568 450 520T410 425T365 332T313 236V0H189V235Q134 332 93 424T13 619H145Q168 547 196 473T254 336Z" />
<glyph unicode="Z" glyph-name="Z" d="M445 533Q402 467 366 409T299 299T241 198T188 102H454V0H46V71Q68 114 93 161T149 263T216 380T297 517H59V619H445V533Z" />
<glyph unicode="[" glyph-name="bracketleft" d="M113 699H390V603H230V-69H390V-165H113V699Z" />
<glyph unicode="\" glyph-name="backslash" d="M49 699H175L455 -165H328L49 699Z" />
<glyph unicode="]" glyph-name="bracketright" d="M387 -165H109V-69H269V603H109V699H387V-165Z" />
<glyph unicode="^" glyph-name="asciicircum" d="M491 309L380 255L254 473L128 255L16 309L201 619H306L491 309Z" />
<glyph unicode="_" glyph-name="underscore" d="M8 -58H492V-165H8V-58Z" />
<glyph unicode="`" glyph-name="grave" d="M213 691L371 580L326 513L152 597L213 691Z" />
<glyph unicode="a" glyph-name="a" d="M251 88Q271 88 290 88T323 91V199Q311 201 294 202T263 204Q244 204 226 202T195 193T173 176T165 147Q165 115 189 102T251 88ZM240 482Q298 482 336 469T398 431T431 371T441 291V11Q414 5 361 -3T242 -11Q197 -11 161
-3T98 23T58 71T44 144Q44 185 60 213T103 258T165 282T238 290Q286 290 323 282V297Q323 332 301 355T225 379Q190 379 158 374T105 362L88 461Q111 469 153 475T240 482Z" />
<glyph unicode="b" glyph-name="b" d="M345 238Q345 304 324 339T258 374Q238 374 219 369T185 355V100Q199 97 214 96T241 95Q289 95 317 127T345 238ZM470 235Q470 179 455 134T411 56T340 7T244 -11Q196 -11 146 -4T62 14V673L185 694V459Q211 471 235 475T283
480Q329 480 364 463T422 413T458 335T470 235Z" />
<glyph unicode="c" glyph-name="c" d="M44 235Q44 286 60 331T109 409T192 462T313 482Q355 482 389 476T458 456L431 357Q411 364 387 369T324 375Q280 375 251 365T203 336T177 291T169 235Q169 170 205 133T330 96Q359 96 390 100T448 113L466 12Q440 2 403
-4T316 -11Q244 -11 193 8T108 60T60 138T44 235Z" />
<glyph unicode="d" glyph-name="d" d="M153 238Q153 175 176 135T252 95Q267 95 280 96T307 99V355Q293 363 275 368T237 374Q193 374 173 339T153 238ZM430 14Q396 3 347 -4T251 -11Q141 -11 85 54T28 232Q28 347 75 413T216 480Q241 480 265 475T307 459V673L430
694V14Z" />
<glyph unicode="e" glyph-name="e" d="M31 231Q31 293 50 340T100 418T171 466T253 482Q357 482 411 421T465 241Q465 229 465 216T463 195H158Q158 149 196 123T294 96Q331 96 364 104T421 120L438 15Q406 4 370 -3T289 -11Q229 -11 182 4T101 50T49 126T31 231ZM346
280Q346 299 341 316T325 348T297 370T255 379Q231 379 214 371T185 349T167 317T158 280H346Z" />
<glyph unicode="f" glyph-name="f" d="M139 0V368H36V470H139V497Q139 554 155 591T200 651T264 683T338 693Q377 693 418 686T492 663L471 563Q448 571 414 579T348 588Q331 588 316 585T289 572T270 544T263 495V470H456V368H263V0H139Z" />
<glyph unicode="g" glyph-name="g" d="M158 250Q158 192 179 162T245 131Q265 131 282 136T314 149V375Q300 378 289 379T266 380Q158 380 158 250ZM438 57Q438 -58 383 -113T204 -168Q160 -168 120 -159T42 -138L65 -34Q94 -45 126 -54T206 -64Q238 -64 259 -57T292
-36T309 -6T314 32V51Q288 41 267 36T220 31Q128 31 81 89T33 250Q33 366 97 423T271 480Q348 480 438 455V57Z" />
<glyph unicode="h" glyph-name="h" d="M63 0V673L186 694V466Q201 471 222 475T259 480Q311 480 346 465T402 421T432 353T441 265V0H318V249Q318 315 303 344T246 373Q229 373 213 369T186 362V0H63Z" />
<glyph unicode="i" glyph-name="i" d="M284 605Q284 569 261 548T206 527Q174 527 152 548T129 605Q129 642 151 663T206 684Q238 684 261 663T284 605ZM467 20Q429 2 396 -4T334 -11Q286 -11 254 3T202 43T174 108T166 195V368H36V470H289V179Q289 137 304 117T356
96Q373 96 397 100T451 119L467 20Z" />
<glyph unicode="j" glyph-name="j" d="M400 31Q400 -26 386 -64T348 -126T290 -160T217 -170Q169 -170 128 -158T49 -127L87 -23Q112 -37 147 -49T212 -62Q243 -62 260 -44T277 25V368H87V470H400V31ZM385 605Q385 569 362 548T307 527Q275 527 253 548T230 605Q230
642 252 663T307 684Q339 684 362 663T385 605Z" />
<glyph unicode="k" glyph-name="k" d="M187 284Q205 305 223 328T259 377T293 425T321 470H469Q451 447 428 420T381 365T332 311T287 263Q312 239 341 206T398 136T449 64T487 0H346Q334 25 315 56T273 118T229 176T187 222V0H63V673L187 694V284Z" />
<glyph unicode="l" glyph-name="l" d="M467 20Q464 18 454 13T426 3T385 -7T329 -11Q244 -11 205 39T166 187V586H36V688H289V178Q289 130 308 113T356 96Q393 96 418 106T451 119L467 20Z" />
<glyph unicode="m" glyph-name="m" d="M343 475Q382 475 407 463T446 427T466 367T471 281V0H371V287Q371 315 368 332T359 358T346 370T330 373Q321 373 311 372T293 366Q296 347 298 324T300 273V179H200V287Q200 335 191 354T160 373Q154 373 146 372T129 369V0H29V452Q68
463 106 469T173 475Q199 475 219 469T255 447Q272 458 295 466T343 475Z" />
<glyph unicode="n" glyph-name="n" d="M63 455Q96 464 144 472T250 480Q306 480 343 465T401 421T432 353T441 265V0H318V249Q318 315 303 344T242 373Q228 373 215 372T186 369V0H63V455Z" />
<glyph unicode="o" glyph-name="o" d="M472 236Q472 180 456 135T411 56T342 5T251 -13Q201 -13 161 5T91 56T45 134T29 236Q29 291 45 336T91 414T162 464T251 482Q300 482 340 465T410 415T456 337T472 236ZM154 235Q154 172 176 133T249 94Q297 94 321 133T346
235Q346 298 324 336T251 375Q203 375 179 337T154 235Z" />
<glyph unicode="p" glyph-name="p" d="M344 231Q344 294 319 334T243 375Q229 375 213 374T186 371V113Q198 105 218 100T258 95Q302 95 323 130T344 231ZM469 235Q469 181 457 136T422 58T364 7T283 -11Q236 -11 186 12V-165H63V455Q97 466 146 473T244 480Q353
480 411 414T469 235Z" />
<glyph unicode="q" glyph-name="q" d="M156 231Q156 166 177 131T243 95Q264 95 282 100T315 113V371Q306 372 291 373T258 375Q207 375 182 335T156 231ZM31 235Q31 289 46 334T89 412T160 462T257 480Q280 480 305 478T355 473T400 465T438 455V-165H315V13Q292
2 267 -4T218 -11Q172 -11 137 6T79 56T43 133T31 235Z" />
<glyph unicode="r" glyph-name="r" d="M437 345Q425 348 409 351T375 356T342 360T315 361Q289 361 264 359T213 349V0H89V439Q138 457 189 468T310 479Q320 479 338 478T378 475T420 469T459 459L437 345Z" />
<glyph unicode="s" glyph-name="s" d="M228 93Q273 93 297 99T321 126Q321 139 314 148T293 163T262 176T225 188Q198 196 170 206T119 233T81 273T66 335Q66 365 77 391T113 438T176 470T267 482Q313 482 352 475T421 455L402 351Q385 356 349 367T268 379Q221
379 205 368T188 343Q188 332 195 324T215 308T244 295T280 282Q307 273 336 262T388 235T427 193T442 130Q442 101 431 75T395 30T328 0T227 -11Q166 -11 123 3T54 28L73 131Q108 117 147 105T228 93Z" />
<glyph unicode="t" glyph-name="t" d="M143 368H36V470H143V588L266 608V470H463V368H266V178Q266 152 271 136T285 111T307 99T336 96Q353 96 367 97T395 100T423 108T455 121L472 15Q438 1 399 -5T322 -11Q279 -11 246 -4T190 23T155 79T143 175V368Z" />
<glyph unicode="u" glyph-name="u" d="M438 16Q404 7 356 -2T250 -11Q192 -11 155 5T97 50T67 120T59 208V470H182V224Q182 159 197 128T258 96Q286 96 314 101V470H438V16Z" />
<glyph unicode="v" glyph-name="v" d="M194 0Q149 89 103 208T14 470H143Q152 432 164 389T191 303T219 218T247 143Q260 177 276 218T307 302T337 389T361 470H486Q444 328 393 209T297 0H194Z" />
<glyph unicode="w" glyph-name="w" d="M322 0Q311 31 302 57T284 107T267 158T249 217Q239 185 231 160T215 109T197 58T175 0H82Q70 44 60 97T40 211T24 337T11 470H116Q120 383 124 300T141 129Q154 167 163 199T180 261T194 318T208 375H297Q303 346 309 319T323
262T339 200T360 129Q366 175 370 217T376 300T380 383T384 470H489Q478 333 459 212T415 0H322Z" />
<glyph unicode="x" glyph-name="x" d="M254 323L350 470H475L323 244Q347 215 370 183T414 117T452 54T481 0H353Q326 51 299 91T248 163Q218 123 194 85T145 0H20Q35 28 54 58T95 120T140 183T186 242L21 470H150L254 323Z" />
<glyph unicode="y" glyph-name="y" d="M472 470Q453 404 436 341T399 217T359 98T312 -15Q293 -55 275 -84T234 -131T184 -159T119 -168Q88 -168 63 -163T20 -150L43 -47Q63 -56 78 -59T112 -63Q148 -63 170 -39T205 18Q161 106 117 219T37 470H165Q174 433 185
391T210 307T237 225T267 149Q277 184 288 224T309 306T328 390T346 470H472Z" />
<glyph unicode="z" glyph-name="z" d="M426 380Q412 364 386 333T330 262T269 181T214 102H436V0H67V75Q90 113 117 153T171 231T224 305T271 368H77V470H426V380Z" />
<glyph unicode="{" glyph-name="braceleft" d="M187 266Q241 256 264 222T288 124V11Q288 -31 300 -50T344 -69H437V-165H333Q243 -165 209 -126T174 -13V134Q174 176 161 197T117 219H63V315H117Q148 315 161 336T174 399V547Q174 621 208 660T333 699H437V603H344Q312
603 300 585T288 523V410Q288 346 265 312T187 266Z" />
<glyph unicode="|" glyph-name="bar" d="M189 699H313V-165H189V699Z" />
<glyph unicode="}" glyph-name="braceright" d="M313 268Q259 278 235 312T211 410V523Q211 565 199 584T155 603H63V699H166Q211 699 241 689T290 660T317 613T325 547V400Q325 358 338 337T382 315H437V219H382Q351 219 338 198T325 135V-13Q325 -50 317 -78T291
-126T242 -155T166 -165H63V-69H155Q187 -69 199 -51T211 11V124Q211 188 235 222T313 268Z" />
<glyph unicode="~" glyph-name="asciitilde" d="M345 171Q318 171 295 181T249 205T207 228T167 239Q159 239 152 237T137 229T124 209T112 174L21 199Q25 224 35 251T61 302T103 340T163 356Q189 356 212 346T258 322T300 299T340 288Q348 288 355 290T370 299T383
319T396 354L487 329Q482 304 473 277T446 226T405 187T345 171Z" />
<glyph unicode="&#xa0;" glyph-name="uni00A0" />
<glyph unicode="&#xa1;" glyph-name="exclamdown" d="M179 -1Q179 35 180 63T184 118T190 170T198 228H300Q304 196 308 170T315 118T319 64T321 -1V-165H179V-1ZM167 383Q167 422 192 443T250 465Q282 465 307 444T333 383Q333 344 308 323T250 301Q218 301 193
322T167 383Z" />
<glyph unicode="&#xa2;" glyph-name="cent" d="M46 262Q46 347 90 408T231 490V618H355V495Q379 493 401 487T447 472L421 368Q402 375 379 380T319 386Q236 386 204 355T172 262Q172 202 206 170T324 138Q353 138 383 142T438 154L455 48Q436 40 411 35T355 28V-97H231V33Q183
42 148 63T91 114T57 182T46 262Z" />
<glyph unicode="&#xa3;" glyph-name="sterling" d="M234 347H382V246H234Q234 230 233 211T231 173T227 135T222 102H455V0H87Q103 72 108 133T115 246H38V347H115V399Q115 466 129 510T170 582T233 620T318 631Q353 631 384 624T446 604L413 506Q392 517 374
521T330 526Q309 526 291 522T261 505T241 471T234 417V347Z" />
<glyph unicode="&#xa4;" glyph-name="currency" d="M251 486Q295 486 333 470L399 533L482 452L418 390Q437 354 437 310Q437 266 418 230L482 168L398 86L332 150Q313 141 294 138T251 134Q228 134 209 137T169 150L103 87L20 168L84 230Q65 264 65 310Q65 356
84 390L20 452L104 534L170 470Q206 486 251 486ZM324 310Q324 348 303 368T251 388Q221 388 200 368T178 310Q178 272 199 252T251 232Q281 232 302 252T324 310Z" />
<glyph unicode="&#xa5;" glyph-name="yen" d="M448 104H313V0H189V104H53V188H189V250H53V334H154Q135 368 115 405T75 480T40 553T13 619H145Q166 555 191 490T253 353Q324 495 361 619H488Q477 590 462 555T430 481T393 406T354 334H448V250H313V188H448V104Z" />
<glyph unicode="&#xa6;" glyph-name="brokenbar" d="M189 189H313V-165H189V189ZM189 699H313V345H189V699Z" />
<glyph unicode="&#xa7;" glyph-name="section" d="M82 40Q102 32 120 26T156 16T194 9T238 7Q271 7 288 18T306 49Q306 65 288 77T224 104Q189 116 159 129T105 162T69 206T55 266Q55 302 71 334T125 402Q106 419 95 441T83 488Q83 557 133 595T277 634Q317 634
360 625T438 601L405 503Q377 514 347 521T276 529Q235 529 224 517T213 490Q213 472 227 460T284 436Q449 388 449 275Q449 237 434 209T386 151Q411 128 423 106T436 48Q436 -27 386 -62T245 -98Q176 -98 128 -86T49 -58L82 40ZM205 355Q187 341 176 321T164
285Q164 268 168 255T187 231T228 209T300 183Q318 198 329 218T340 253Q340 271 335 283T315 306T274 328T205 355Z" />
<glyph unicode="&#xa8;" glyph-name="dieresis" d="M152 538Q124 538 104 555T83 605Q83 637 103 655T152 673Q179 673 200 655T221 605Q221 573 200 556T152 538ZM351 538Q323 538 303 555T282 605Q282 637 302 655T351 673Q379 673 399 655T420 605Q420 573
400 556T351 538Z" />
<glyph unicode="&#xa9;" glyph-name="copyright" d="M327 120Q310 112 292 108T256 104Q227 104 206 114T170 142T149 182T142 229Q142 253 149 276T170 317T205 346T257 357Q273 357 290 355T325 344L305 290Q294 295 283 296T263 298Q231 298 218 278T204 233Q204
201 220 183T267 164Q276 164 287 166T310 173L327 120ZM25 231Q25 292 44 338T94 414T166 460T251 475Q294 475 335 460T407 415T458 338T477 231Q477 170 458 125T408 49T335 3T251 -13Q207 -13 167 2T95 48T44 124T25 231ZM250 51Q280 51 308 62T358 97T394
154T408 232Q408 275 395 308T359 365T309 400T250 412Q220 412 192 400T142 365T106 309T92 232Q92 188 105 154T141 97T192 63T250 51Z" />
<glyph unicode="&#xaa;" glyph-name="ordfeminine" d="M262 351Q276 351 289 352T310 354V423Q304 425 293 426T271 428Q244 428 224 421T204 390Q204 367 220 359T262 351ZM254 632Q297 632 326 623T372 596T397 553T405 496V293Q385 288 346 282T255 275Q185
275 145 300T104 388Q104 418 116 438T148 471T196 488T253 494Q271 494 285 492T310 488V497Q310 522 295 536T243 550Q218 550 193 547T150 537L137 616Q154 621 187 626T254 632Z" />
<glyph unicode="&#xab;" glyph-name="guillemotleft" d="M186 462L251 422L157 255L251 88L188 46L50 255L186 462ZM385 462L451 422L358 255L451 88L387 46L251 255L385 462Z" />
<glyph unicode="&#xac;" glyph-name="logicalnot" d="M448 42H343V261H45V363H448V42Z" />
<glyph unicode="&#xad;" glyph-name="uni00AD" d="M113 317H387V196H113V317Z" />
<glyph unicode="&#xae;" glyph-name="registered" d="M220 187V110H166V348Q180 352 197 354T233 357Q290 357 317 335T345 271Q345 223 305 200Q317 183 330 160T356 110H299Q286 134 276 152T256 187H220ZM220 237H238Q265 237 278 244T291 274Q291 294 275
300T242 307Q236 307 231 307T220 305V237ZM25 231Q25 292 44 338T94 414T166 460T251 475Q294 475 335 460T407 415T458 338T477 231Q477 170 458 125T408 49T335 3T251 -13Q207 -13 167 2T95 48T44 124T25 231ZM250 51Q280 51 308 62T358 97T394 154T408 232Q408
275 395 308T359 365T309 400T250 412Q220 412 192 400T142 365T106 309T92 232Q92 188 105 154T141 97T192 63T250 51Z" />
<glyph unicode="&#xaf;" glyph-name="overscore" d="M108 647H396V560H108V647Z" />
<glyph unicode="&#xb0;" glyph-name="degree" d="M252 698Q283 698 309 689T355 661T385 617T396 559Q396 527 385 502T355 458T310 431T252 421Q186 421 147 457T108 559Q108 624 148 661T252 698ZM252 505Q275 505 290 518T306 560Q306 588 291 601T252 614Q229
614 213 601T197 560Q197 532 213 519T252 505Z" />
<glyph unicode="&#xb1;" glyph-name="plusminus" d="M40 102H460V0H40V102ZM40 402H197V558H303V402H460V300H303V143H197V300H40V402Z" />
<glyph unicode="&#xb2;" glyph-name="twosuperior" d="M377 523Q377 484 354 458T304 408Q288 395 273 380T246 351H386V270H129V295Q129 339 152 374T221 447Q246 468 260 483T275 514Q275 528 267 536T244 544Q218 544 196 534T159 511L113 580Q136 600 172
616T248 633Q318 633 347 603T377 523Z" />
<glyph unicode="&#xb3;" glyph-name="threesuperior" d="M231 346Q263 346 275 356T288 380Q288 416 225 416H188V489H225Q246 489 259 497T272 522Q272 550 233 550Q212 550 192 543T153 528L119 598Q141 612 174 622T240 633Q276 633 300 625T340 604T361 572T367
533Q367 514 359 498T330 464Q359 451 371 429T384 379Q384 354 376 333T350 297T303 272T232 263Q202 263 168 269T113 287L134 366Q164 353 185 350T231 346Z" />
<glyph unicode="&#xb4;" glyph-name="acute" d="M371 597L197 513L152 580L310 691L371 597Z" />
<glyph unicode="&#xb5;" glyph-name="mu" d="M182 470V214Q182 179 187 157T201 121T225 102T259 96Q273 96 287 97T314 101V470H438V16Q406 7 359 -2T261 -11Q245 -11 221 -7T176 4Q178 -17 180 -36T182 -82V-165H59V470H182Z" />
<glyph unicode="&#xb6;" glyph-name="paragraph" d="M172 232Q96 249 58 294T19 427Q19 475 36 512T86 574T165 613T268 626Q316 626 366 621T455 605V-165H354V522Q344 524 320 525T274 524V-165H172V232Z" />
<glyph unicode="&#xb7;" glyph-name="middot" d="M340 265Q340 221 313 198T251 175Q233 175 217 181T189 198T169 226T161 265Q161 286 168 302T188 330T217 347T251 353Q286 353 313 330T340 265Z" />
<glyph unicode="&#xb8;" glyph-name="cedilla" d="M300 -24Q333 -34 346 -53T359 -91Q359 -114 349 -129T322 -153T283 -166T239 -170Q194 -170 159 -159L172 -96Q178 -98 195 -101T228 -105Q269 -105 269 -80Q269 -61 233 -49L213 -43Q218 -26 226 -8T240 18H320Q315
7 310 -3T300 -24Z" />
<glyph unicode="&#xb9;" glyph-name="onesuperior" d="M138 270V351H238V511Q220 500 202 493T156 474L129 552Q167 567 202 586T263 626H340V351H422V270H138Z" />
<glyph unicode="&#xba;" glyph-name="ordmasculine" d="M423 452Q423 410 411 377T375 321T320 286T249 273Q210 273 178 285T123 321T87 377T74 452Q74 494 87 528T123 585T178 620T249 633Q288 633 320 621T375 585T410 528T423 452ZM321 452Q321 495 303 519T249
544Q215 544 196 520T176 452Q176 411 195 387T249 363Q284 363 302 387T321 452Z" />
<glyph unicode="&#xbb;" glyph-name="guillemotright" d="M315 46L250 86L344 254L250 421L313 462L451 254L315 46ZM116 46L50 86L143 254L50 421L114 462L250 254L116 46Z" />
<glyph unicode="&#xbc;" glyph-name="onequarter" d="M459 250V102H495V39H459V0H379V39H255V84Q278 127 300 165T355 250H459ZM2 557Q36 572 61 587T110 626H173V376H88V526Q68 515 54 509T21 498L2 557ZM379 186Q363 163 351 143T328 102H379V186ZM448 619L131
0H31L348 619H448Z" />
<glyph unicode="&#xbd;" glyph-name="onehalf" d="M491 63V0H282Q280 6 280 12T280 23Q280 58 300 77T350 115L372 129Q389 140 395 147T401 167Q401 189 375 189Q360 189 345 181T318 160L277 213Q296 236 325 247T386 259Q425 259 455 239T486 177Q486 150 475
133T448 104T414 83T382 63H491ZM2 557Q36 572 61 587T110 626H173V376H88V526Q68 515 54 509T21 498L2 557ZM448 619L131 0H31L348 619H448Z" />
<glyph unicode="&#xbe;" glyph-name="threequarters" d="M30 445Q41 440 60 435T100 430Q123 430 134 434T146 451Q146 477 87 477H67V534H89Q115 534 124 539T134 554Q134 563 127 567T108 571Q91 571 71 565T42 554L20 608Q34 619 62 626T120 633Q172 633 196
613T220 566Q220 547 214 534T190 510Q232 490 232 447Q232 424 223 409T196 385T157 371T107 367Q79 367 54 371T12 384L30 445ZM459 250V102H495V39H459V0H379V39H255V84Q278 127 300 165T355 250H459ZM379 186Q363 163 351 143T328 102H379V186ZM466 619L149
0H49L366 619H466Z" />
<glyph unicode="&#xbf;" glyph-name="questiondown" d="M337 229Q338 224 338 214Q338 174 317 138T262 73Q251 64 240 55T219 37T205 18T199 -5Q199 -35 220 -50T273 -66Q305 -66 335 -57T400 -30L434 -124Q399 -146 352 -158T259 -170Q202 -170 165 -155T107
-117T78 -66T69 -13Q69 16 80 39T109 82T147 119T184 154T213 189T225 229H337ZM190 383Q190 422 215 444T273 466Q289 466 304 461T331 444T350 418T357 383Q357 364 350 349T331 323T304 307T273 301Q257 301 242 306T216 322T197 348T190 383Z" />
<glyph unicode="&#xc0;" glyph-name="Agrave" d="M359 0L330 143H165L137 0H9Q53 183 98 333T185 619H319Q363 483 406 331T491 0H359ZM249 499Q239 464 231 433T215 371T201 309T188 245H309Q303 278 297 309T284 370T268 432T249 499ZM197 830L355 719L310 652L136
736L197 830Z" />
<glyph unicode="&#xc1;" glyph-name="Aacute" d="M359 0L330 143H165L137 0H9Q53 183 98 333T185 619H319Q363 483 406 331T491 0H359ZM249 499Q239 464 231 433T215 371T201 309T188 245H309Q303 278 297 309T284 370T268 432T249 499ZM359 736L185 652L140 719L298
830L359 736Z" />
<glyph unicode="&#xc2;" glyph-name="Acircumflex" d="M359 0L330 143H165L137 0H9Q53 183 98 333T185 619H319Q363 483 406 331T491 0H359ZM249 499Q239 464 231 433T215 371T201 309T188 245H309Q303 278 297 309T284 370T268 432T249 499ZM390 708L341 649L252
718L163 649L112 708L252 830L390 708Z" />
<glyph unicode="&#xc3;" glyph-name="Atilde" d="M359 0L330 143H165L137 0H9Q53 183 98 333T185 619H319Q363 483 406 331T491 0H359ZM249 499Q239 464 231 433T215 371T201 309T188 245H309Q303 278 297 309T284 370T268 432T249 499ZM413 772Q408 758 399 743T376
713T345 690T308 681Q292 681 279 686T252 696T225 707T196 712Q179 712 168 701T148 674L89 713Q94 727 103 743T126 773T157 796T195 805Q211 805 224 800T251 790T278 779T306 774Q323 774 335 785T354 811L413 772Z" />
<glyph unicode="&#xc4;" glyph-name="Adieresis" d="M359 0L330 143H165L137 0H9Q53 183 98 333T185 619H319Q363 483 406 331T491 0H359ZM249 499Q239 464 231 433T215 371T201 309T188 245H309Q303 278 297 309T284 370T268 432T249 499ZM152 677Q124 677 104
694T83 744Q83 776 103 794T152 812Q179 812 200 794T221 744Q221 712 200 695T152 677ZM351 677Q323 677 303 694T282 744Q282 776 302 794T351 812Q379 812 399 794T420 744Q420 712 400 695T351 677Z" />
<glyph unicode="&#xc5;" glyph-name="Aring" d="M355 685Q355 659 346 640T322 607Q365 473 408 324T491 0H359L330 143H165L137 0H9Q52 178 95 325T180 605Q164 618 155 638T145 685Q145 710 153 729T176 762T210 781T249 788Q292 788 323 762T355 685ZM249 499Q239
464 231 433T215 371T201 309T188 245H309Q303 278 297 309T284 370T268 432T249 499ZM290 685Q290 706 278 716T249 727Q234 727 222 717T209 685Q209 664 221 654T249 643Q266 643 278 653T290 685Z" />
<glyph unicode="&#xc6;" glyph-name="AE" d="M255 143H164L137 0H9Q35 106 57 186T101 337T146 473T198 619H478V517H367V379H455V277H367V102H491V0H255V143ZM255 536Q238 467 221 398T186 245H255V536Z" />
<glyph unicode="&#xc7;" glyph-name="Ccedilla" d="M300 -24Q333 -34 346 -53T359 -91Q359 -114 349 -129T322 -153T283 -166T239 -170Q194 -170 159 -159L172 -96Q178 -98 195 -101T228 -105Q269 -105 269 -80Q269 -61 233 -49L213 -43Q215 -34 219 -24T227 -6Q130
15 79 95T27 310Q27 387 48 447T106 548T195 611T308 633Q341 633 367 628T414 615T447 600T468 588L436 490Q413 505 381 515T306 526Q277 526 250 516T201 481T166 415T152 313Q152 207 188 151T308 94Q356 94 387 105T438 127L469 30Q444 15 402 2T304 -13L300
-24Z" />
<glyph unicode="&#xc8;" glyph-name="Egrave" d="M63 0V619H438V517H186V378H405V276H186V102H460V0H63ZM197 830L355 719L310 652L136 736L197 830Z" />
<glyph unicode="&#xc9;" glyph-name="Eacute" d="M63 0V619H438V517H186V378H405V276H186V102H460V0H63ZM359 736L185 652L140 719L298 830L359 736Z" />
<glyph unicode="&#xca;" glyph-name="Ecircumflex" d="M63 0V619H438V517H186V378H405V276H186V102H460V0H63ZM390 708L341 649L252 718L163 649L112 708L252 830L390 708Z" />
<glyph unicode="&#xcb;" glyph-name="Edieresis" d="M63 0V619H438V517H186V378H405V276H186V102H460V0H63ZM152 677Q124 677 104 694T83 744Q83 776 103 794T152 812Q179 812 200 794T221 744Q221 712 200 695T152 677ZM351 677Q323 677 303 694T282 744Q282
776 302 794T351 812Q379 812 399 794T420 744Q420 712 400 695T351 677Z" />
<glyph unicode="&#xcc;" glyph-name="Igrave" d="M54 0V102H189V517H54V619H447V517H313V102H447V0H54ZM197 830L355 719L310 652L136 736L197 830Z" />
<glyph unicode="&#xcd;" glyph-name="Iacute" d="M54 0V102H189V517H54V619H447V517H313V102H447V0H54ZM359 736L185 652L140 719L298 830L359 736Z" />
<glyph unicode="&#xce;" glyph-name="Icircumflex" d="M54 0V102H189V517H54V619H447V517H313V102H447V0H54ZM390 708L341 649L252 718L163 649L112 708L252 830L390 708Z" />
<glyph unicode="&#xcf;" glyph-name="Idieresis" d="M54 0V102H189V517H54V619H447V517H313V102H447V0H54ZM152 677Q124 677 104 694T83 744Q83 776 103 794T152 812Q179 812 200 794T221 744Q221 712 200 695T152 677ZM351 677Q323 677 303 694T282 744Q282 776
302 794T351 812Q379 812 399 794T420 744Q420 712 400 695T351 677Z" />
<glyph unicode="&#xd0;" glyph-name="Eth" d="M473 310Q473 224 453 164T396 65T309 10T199 -8Q167 -8 137 -5T71 7V270H18V372H71V611Q113 620 148 623T215 626Q273 626 321 608T402 552T454 454T473 310ZM195 372H271V270H195V100Q199 99 203 99T213 99Q251
99 277 115T318 159T341 225T348 310Q348 350 343 388T325 455T287 501T226 519Q218 519 210 519T195 516V372Z" />
<glyph unicode="&#xd1;" glyph-name="Ntilde" d="M355 0Q313 103 264 205T157 411V0H46V619H145Q173 575 201 524T255 421T304 322T343 238V619H454V0H355ZM413 772Q408 758 399 743T376 713T345 690T308 681Q292 681 279 686T252 696T225 707T196 712Q179 712
168 701T148 674L89 713Q94 727 103 743T126 773T157 796T195 805Q211 805 224 800T251 790T278 779T306 774Q323 774 335 785T354 811L413 772Z" />
<glyph unicode="&#xd2;" glyph-name="Ograve" d="M152 310Q152 265 155 226T169 157T199 111T250 94Q281 94 300 111T330 157T344 226T348 310Q348 355 345 394T331 463T301 509T250 526Q218 526 199 509T170 463T156 394T152 310ZM27 310Q27 470 86 551T250 633Q359
633 416 552T473 310Q473 150 415 69T251 -13Q142 -13 85 68T27 310ZM197 830L355 719L310 652L136 736L197 830Z" />
<glyph unicode="&#xd3;" glyph-name="Oacute" d="M152 310Q152 265 155 226T169 157T199 111T250 94Q281 94 300 111T330 157T344 226T348 310Q348 355 345 394T331 463T301 509T250 526Q218 526 199 509T170 463T156 394T152 310ZM27 310Q27 470 86 551T250 633Q359
633 416 552T473 310Q473 150 415 69T251 -13Q142 -13 85 68T27 310ZM359 736L185 652L140 719L298 830L359 736Z" />
<glyph unicode="&#xd4;" glyph-name="Ocircumflex" d="M152 310Q152 265 155 226T169 157T199 111T250 94Q281 94 300 111T330 157T344 226T348 310Q348 355 345 394T331 463T301 509T250 526Q218 526 199 509T170 463T156 394T152 310ZM27 310Q27 470 86 551T250
633Q359 633 416 552T473 310Q473 150 415 69T251 -13Q142 -13 85 68T27 310ZM390 708L341 649L252 718L163 649L112 708L252 830L390 708Z" />
<glyph unicode="&#xd5;" glyph-name="Otilde" d="M152 310Q152 265 155 226T169 157T199 111T250 94Q281 94 300 111T330 157T344 226T348 310Q348 355 345 394T331 463T301 509T250 526Q218 526 199 509T170 463T156 394T152 310ZM27 310Q27 470 86 551T250 633Q359
633 416 552T473 310Q473 150 415 69T251 -13Q142 -13 85 68T27 310ZM413 772Q408 758 399 743T376 713T345 690T308 681Q292 681 279 686T252 696T225 707T196 712Q179 712 168 701T148 674L89 713Q94 727 103 743T126 773T157 796T195 805Q211 805 224 800T251
790T278 779T306 774Q323 774 335 785T354 811L413 772Z" />
<glyph unicode="&#xd6;" glyph-name="Odieresis" d="M152 310Q152 265 155 226T169 157T199 111T250 94Q281 94 300 111T330 157T344 226T348 310Q348 355 345 394T331 463T301 509T250 526Q218 526 199 509T170 463T156 394T152 310ZM27 310Q27 470 86 551T250
633Q359 633 416 552T473 310Q473 150 415 69T251 -13Q142 -13 85 68T27 310ZM152 677Q124 677 104 694T83 744Q83 776 103 794T152 812Q179 812 200 794T221 744Q221 712 200 695T152 677ZM351 677Q323 677 303 694T282 744Q282 776 302 794T351 812Q379 812 399
794T420 744Q420 712 400 695T351 677Z" />
<glyph unicode="&#xd7;" glyph-name="multiply" d="M379 459L449 388L324 264L450 139L379 70L254 196L129 70L60 138L185 263L60 388L129 460L254 335L379 459Z" />
<glyph unicode="&#xd8;" glyph-name="Oslash" d="M27 308Q27 468 86 549T250 631Q305 631 344 612L367 659L447 619L413 552Q473 469 473 308Q473 148 415 67T251 -15Q194 -15 150 8L127 -40L48 0L82 71Q27 153 27 308ZM348 308Q348 334 347 358T343 405L198 109Q220
92 250 92Q281 92 300 109T330 155T344 224T348 308ZM152 308Q152 260 155 221L296 511Q277 524 250 524Q218 524 199 507T170 461T156 392T152 308Z" />
<glyph unicode="&#xd9;" glyph-name="Ugrave" d="M248 -13Q188 -13 148 3T83 51T49 126T39 224V619H163V232Q163 193 167 167T180 124T207 101T250 94Q276 94 293 101T320 124T334 167T338 233V619H461V224Q461 170 451 126T416 51T350 4T248 -13ZM188 830L346
719L301 652L127 736L188 830Z" />
<glyph unicode="&#xda;" glyph-name="Uacute" d="M248 -13Q188 -13 148 3T83 51T49 126T39 224V619H163V232Q163 193 167 167T180 124T207 101T250 94Q276 94 293 101T320 124T334 167T338 233V619H461V224Q461 170 451 126T416 51T350 4T248 -13ZM375 736L201
652L156 719L314 830L375 736Z" />
<glyph unicode="&#xdb;" glyph-name="Ucircumflex" d="M248 -13Q188 -13 148 3T83 51T49 126T39 224V619H163V232Q163 193 167 167T180 124T207 101T250 94Q276 94 293 101T320 124T334 167T338 233V619H461V224Q461 170 451 126T416 51T350 4T248 -13ZM390 708L341
649L252 718L163 649L112 708L252 830L390 708Z" />
<glyph unicode="&#xdc;" glyph-name="Udieresis" d="M248 -13Q188 -13 148 3T83 51T49 126T39 224V619H163V232Q163 193 167 167T180 124T207 101T250 94Q276 94 293 101T320 124T334 167T338 233V619H461V224Q461 170 451 126T416 51T350 4T248 -13ZM152 677Q124
677 104 694T83 744Q83 776 103 794T152 812Q179 812 200 794T221 744Q221 712 200 695T152 677ZM351 677Q323 677 303 694T282 744Q282 776 302 794T351 812Q379 812 399 794T420 744Q420 712 400 695T351 677Z" />
<glyph unicode="&#xdd;" glyph-name="Yacute" d="M254 336Q265 359 279 394T308 468T336 547T361 619H488Q469 568 450 520T410 425T365 332T313 236V0H189V235Q134 332 93 424T13 619H145Q168 547 196 473T254 336ZM375 736L201 652L156 719L314 830L375 736Z" />
<glyph unicode="&#xde;" glyph-name="Thorn" d="M224 531Q343 531 407 480T472 324Q472 220 407 167T221 114H177V0H54V619H177V530Q190 531 201 531T224 531ZM238 424Q227 424 208 424T177 421V221H227Q286 221 316 248T346 325Q346 373 317 398T238 424Z" />
<glyph unicode="&#xdf;" glyph-name="germandbls" d="M408 545Q408 502 398 478T375 436T353 401T342 355Q342 334 353 320T381 293T417 268T453 241T481 203T492 148Q492 71 454 30T321 -11Q274 -11 247 -3T202 14L224 116Q241 108 266 101T313 93Q340 93 353
107T367 146Q367 170 346 188T290 223Q245 247 233 276T221 338Q221 373 232 395T256 435T280 475T291 530Q291 559 275 573T230 588Q192 588 173 559T154 479V0H31V476Q31 523 42 563T77 632T138 677T227 693Q277 693 311 681T367 649T398 602T408 545Z" />
<glyph unicode="&#xe0;" glyph-name="agrave" d="M251 88Q271 88 290 88T323 91V199Q311 201 294 202T263 204Q244 204 226 202T195 193T173 176T165 147Q165 115 189 102T251 88ZM240 482Q298 482 336 469T398 431T431 371T441 291V11Q414 5 361 -3T242 -11Q197
-11 161 -3T98 23T58 71T44 144Q44 185 60 213T103 258T165 282T238 290Q286 290 323 282V297Q323 332 301 355T225 379Q190 379 158 374T105 362L88 461Q111 469 153 475T240 482ZM452 691L610 580L565 513L391 597L452 691Z" />
<glyph unicode="&#xe1;" glyph-name="aacute" d="M251 88Q271 88 290 88T323 91V199Q311 201 294 202T263 204Q244 204 226 202T195 193T173 176T165 147Q165 115 189 102T251 88ZM240 482Q298 482 336 469T398 431T431 371T441 291V11Q414 5 361 -3T242 -11Q197
-11 161 -3T98 23T58 71T44 144Q44 185 60 213T103 258T165 282T238 290Q286 290 323 282V297Q323 332 301 355T225 379Q190 379 158 374T105 362L88 461Q111 469 153 475T240 482ZM371 597L197 513L152 580L310 691L371 597Z" />
<glyph unicode="&#xe2;" glyph-name="acircumflex" d="M251 88Q271 88 290 88T323 91V199Q311 201 294 202T263 204Q244 204 226 202T195 193T173 176T165 147Q165 115 189 102T251 88ZM240 482Q298 482 336 469T398 431T431 371T441 291V11Q414 5 361 -3T242
-11Q197 -11 161 -3T98 23T58 71T44 144Q44 185 60 213T103 258T165 282T238 290Q286 290 323 282V297Q323 332 301 355T225 379Q190 379 158 374T105 362L88 461Q111 469 153 475T240 482ZM390 569L341 510L252 579L163 510L112 569L252 691L390 569Z" />
<glyph unicode="&#xe3;" glyph-name="atilde" d="M251 88Q271 88 290 88T323 91V199Q311 201 294 202T263 204Q244 204 226 202T195 193T173 176T165 147Q165 115 189 102T251 88ZM240 482Q298 482 336 469T398 431T431 371T441 291V11Q414 5 361 -3T242 -11Q197
-11 161 -3T98 23T58 71T44 144Q44 185 60 213T103 258T165 282T238 290Q286 290 323 282V297Q323 332 301 355T225 379Q190 379 158 374T105 362L88 461Q111 469 153 475T240 482ZM414 633Q409 619 400 604T377 574T346 551T309 542Q293 542 280 547T253 557T226
568T197 573Q180 573 169 562T149 535L90 574Q95 588 104 604T127 634T158 657T196 666Q212 666 225 661T252 651T279 640T307 635Q324 635 336 646T355 672L414 633Z" />
<glyph unicode="&#xe4;" glyph-name="adieresis" d="M251 88Q271 88 290 88T323 91V199Q311 201 294 202T263 204Q244 204 226 202T195 193T173 176T165 147Q165 115 189 102T251 88ZM240 482Q298 482 336 469T398 431T431 371T441 291V11Q414 5 361 -3T242 -11Q197
-11 161 -3T98 23T58 71T44 144Q44 185 60 213T103 258T165 282T238 290Q286 290 323 282V297Q323 332 301 355T225 379Q190 379 158 374T105 362L88 461Q111 469 153 475T240 482ZM152 538Q124 538 104 555T83 605Q83 637 103 655T152 673Q179 673 200 655T221
605Q221 573 200 556T152 538ZM351 538Q323 538 303 555T282 605Q282 637 302 655T351 673Q379 673 399 655T420 605Q420 573 400 556T351 538Z" />
<glyph unicode="&#xe5;" glyph-name="aring" d="M251 88Q271 88 290 88T323 91V199Q311 201 294 202T263 204Q244 204 226 202T195 193T173 176T165 147Q165 115 189 102T251 88ZM240 482Q298 482 336 469T398 431T431 371T441 291V11Q414 5 361 -3T242 -11Q197
-11 161 -3T98 23T58 71T44 144Q44 185 60 213T103 258T165 282T238 290Q286 290 323 282V297Q323 332 301 355T225 379Q190 379 158 374T105 362L88 461Q111 469 153 475T240 482ZM355 604Q355 554 324 528T249 502Q229 502 210 508T177 528T154 560T145 604Q145
629 153 648T176 681T210 700T249 707Q292 707 323 681T355 604ZM290 604Q290 625 278 635T249 646Q234 646 222 636T209 604Q209 584 221 573T249 562Q266 562 278 573T290 604Z" />
<glyph unicode="&#xe6;" glyph-name="ae" d="M163 482Q194 482 221 470T270 428Q287 454 308 468T354 482Q383 482 407 470T450 431T478 360T488 252Q488 240 488 223T486 195H307Q308 167 315 148T333 116T358 98T388 92Q406 92 423 96T455 109L473 12Q450 0
428 -5T375 -11Q340 -11 315 3T273 38Q250 12 221 1T162 -11Q128 -11 102 2T59 38T32 88T23 145Q23 213 61 251T160 290Q173 290 186 289T213 282V305Q213 349 198 366T155 383Q138 383 119 378T76 364L59 459Q85 470 111 476T163 482ZM213 199Q204 202 195 203T177
204Q151 204 135 191T118 146Q118 119 132 103T173 87Q196 87 222 99Q216 125 215 151T213 199ZM354 384Q341 384 333 375T319 350T311 317T308 280H396Q396 299 394 318T388 351T375 375T354 384Z" />
<glyph unicode="&#xe7;" glyph-name="ccedilla" d="M44 235Q44 286 60 331T109 409T192 462T313 482Q355 482 389 476T458 456L431 357Q411 364 387 369T324 375Q280 375 251 365T203 336T177 291T169 235Q169 170 205 133T330 96Q359 96 390 100T448 113L466
12Q440 2 403 -4T316 -11H305L300 -24Q333 -34 346 -53T359 -91Q359 -114 349 -129T322 -153T283 -166T239 -170Q194 -170 159 -159L172 -96Q178 -98 195 -101T228 -105Q269 -105 269 -80Q269 -61 233 -49L213 -43Q219 -22 229 -2Q180 8 145 30T88 83T55 152T44
235Z" />
<glyph unicode="&#xe8;" glyph-name="egrave" d="M31 231Q31 293 50 340T100 418T171 466T253 482Q357 482 411 421T465 241Q465 229 465 216T463 195H158Q158 149 196 123T294 96Q331 96 364 104T421 120L438 15Q406 4 370 -3T289 -11Q229 -11 182 4T101 50T49
126T31 231ZM346 280Q346 299 341 316T325 348T297 370T255 379Q231 379 214 371T185 349T167 317T158 280H346ZM452 691L610 580L565 513L391 597L452 691Z" />
<glyph unicode="&#xe9;" glyph-name="eacute" d="M31 231Q31 293 50 340T100 418T171 466T253 482Q357 482 411 421T465 241Q465 229 465 216T463 195H158Q158 149 196 123T294 96Q331 96 364 104T421 120L438 15Q406 4 370 -3T289 -11Q229 -11 182 4T101 50T49
126T31 231ZM346 280Q346 299 341 316T325 348T297 370T255 379Q231 379 214 371T185 349T167 317T158 280H346ZM380 597L206 513L161 580L319 691L380 597Z" />
<glyph unicode="&#xea;" glyph-name="ecircumflex" d="M31 231Q31 293 50 340T100 418T171 466T253 482Q357 482 411 421T465 241Q465 229 465 216T463 195H158Q158 149 196 123T294 96Q331 96 364 104T421 120L438 15Q406 4 370 -3T289 -11Q229 -11 182 4T101
50T49 126T31 231ZM346 280Q346 299 341 316T325 348T297 370T255 379Q231 379 214 371T185 349T167 317T158 280H346ZM394 569L345 510L256 579L167 510L116 569L256 691L394 569Z" />
<glyph unicode="&#xeb;" glyph-name="edieresis" d="M31 231Q31 293 50 340T100 418T171 466T253 482Q357 482 411 421T465 241Q465 229 465 216T463 195H158Q158 149 196 123T294 96Q331 96 364 104T421 120L438 15Q406 4 370 -3T289 -11Q229 -11 182 4T101 50T49
126T31 231ZM346 280Q346 299 341 316T325 348T297 370T255 379Q231 379 214 371T185 349T167 317T158 280H346ZM152 538Q124 538 104 555T83 605Q83 637 103 655T152 673Q179 673 200 655T221 605Q221 573 200 556T152 538ZM351 538Q323 538 303 555T282 605Q282
637 302 655T351 673Q379 673 399 655T420 605Q420 573 400 556T351 538Z" />
<glyph unicode="&#xec;" glyph-name="igrave" d="M467 20Q429 2 396 -4T334 -11Q286 -11 254 3T202 43T174 108T166 195V368H36V470H289V179Q289 137 304 117T356 96Q373 96 397 100T451 119L467 20ZM434 691L592 580L547 513L373 597L434 691Z" />
<glyph unicode="&#xed;" glyph-name="iacute" d="M467 20Q429 2 396 -4T334 -11Q286 -11 254 3T202 43T174 108T166 195V368H36V470H289V179Q289 137 304 117T356 96Q373 96 397 100T451 119L467 20ZM615 597L441 513L396 580L554 691L615 597Z" />
<glyph unicode="&#xee;" glyph-name="icircumflex" d="M467 20Q429 2 396 -4T334 -11Q286 -11 254 3T202 43T174 108T166 195V368H36V470H289V179Q289 137 304 117T356 96Q373 96 397 100T451 119L467 20ZM629 569L580 510L491 579L402 510L351 569L491 691L629 569Z" />
<glyph unicode="&#xef;" glyph-name="idieresis" d="M467 20Q429 2 396 -4T334 -11Q286 -11 254 3T202 43T174 108T166 195V368H36V470H289V179Q289 137 304 117T356 96Q373 96 397 100T451 119L467 20ZM391 538Q363 538 343 555T322 605Q322 637 342 655T391
673Q418 673 439 655T460 605Q460 573 439 556T391 538ZM590 538Q562 538 542 555T521 605Q521 637 541 655T590 673Q618 673 638 655T659 605Q659 573 639 556T590 538Z" />
<glyph unicode="&#xf0;" glyph-name="eth" d="M391 535Q423 475 439 409T455 276Q455 218 445 166T410 74T346 11T246 -13Q194 -13 156 4T92 52T53 122T40 209Q40 252 52 290T89 358T151 404T240 421Q260 421 282 414T321 398Q316 421 306 446T280 497L188 466L162
541L230 564Q216 580 200 593T166 620L240 697Q301 661 346 604L455 640L480 565L391 535ZM327 294Q303 315 282 319T249 323Q207 323 187 293T166 209Q166 187 171 167T185 130T209 104T241 94Q289 94 308 141T328 267Q328 274 328 280T327 294Z" />
<glyph unicode="&#xf1;" glyph-name="ntilde" d="M63 455Q96 464 144 472T250 480Q306 480 343 465T401 421T432 353T441 265V0H318V249Q318 315 303 344T242 373Q228 373 215 372T186 369V0H63V455ZM414 633Q409 619 400 604T377 574T346 551T309 542Q293 542
280 547T253 557T226 568T197 573Q180 573 169 562T149 535L90 574Q95 588 104 604T127 634T158 657T196 666Q212 666 225 661T252 651T279 640T307 635Q324 635 336 646T355 672L414 633Z" />
<glyph unicode="&#xf2;" glyph-name="ograve" d="M472 236Q472 180 456 135T411 56T342 5T251 -13Q201 -13 161 5T91 56T45 134T29 236Q29 291 45 336T91 414T162 464T251 482Q300 482 340 465T410 415T456 337T472 236ZM154 235Q154 172 176 133T249 94Q297 94
321 133T346 235Q346 298 324 336T251 375Q203 375 179 337T154 235ZM452 691L610 580L565 513L391 597L452 691Z" />
<glyph unicode="&#xf3;" glyph-name="oacute" d="M472 236Q472 180 456 135T411 56T342 5T251 -13Q201 -13 161 5T91 56T45 134T29 236Q29 291 45 336T91 414T162 464T251 482Q300 482 340 465T410 415T456 337T472 236ZM154 235Q154 172 176 133T249 94Q297 94
321 133T346 235Q346 298 324 336T251 375Q203 375 179 337T154 235ZM619 597L445 513L400 580L558 691L619 597Z" />
<glyph unicode="&#xf4;" glyph-name="ocircumflex" d="M472 236Q472 180 456 135T411 56T342 5T251 -13Q201 -13 161 5T91 56T45 134T29 236Q29 291 45 336T91 414T162 464T251 482Q300 482 340 465T410 415T456 337T472 236ZM154 235Q154 172 176 133T249 94Q297
94 321 133T346 235Q346 298 324 336T251 375Q203 375 179 337T154 235ZM390 569L341 510L252 579L163 510L112 569L252 691L390 569Z" />
<glyph unicode="&#xf5;" glyph-name="otilde" d="M472 236Q472 180 456 135T411 56T342 5T251 -13Q201 -13 161 5T91 56T45 134T29 236Q29 291 45 336T91 414T162 464T251 482Q300 482 340 465T410 415T456 337T472 236ZM154 235Q154 172 176 133T249 94Q297 94
321 133T346 235Q346 298 324 336T251 375Q203 375 179 337T154 235ZM414 633Q409 619 400 604T377 574T346 551T309 542Q293 542 280 547T253 557T226 568T197 573Q180 573 169 562T149 535L90 574Q95 588 104 604T127 634T158 657T196 666Q212 666 225 661T252
651T279 640T307 635Q324 635 336 646T355 672L414 633Z" />
<glyph unicode="&#xf6;" glyph-name="odieresis" d="M472 236Q472 180 456 135T411 56T342 5T251 -13Q201 -13 161 5T91 56T45 134T29 236Q29 291 45 336T91 414T162 464T251 482Q300 482 340 465T410 415T456 337T472 236ZM154 235Q154 172 176 133T249 94Q297
94 321 133T346 235Q346 298 324 336T251 375Q203 375 179 337T154 235ZM152 538Q124 538 104 555T83 605Q83 637 103 655T152 673Q179 673 200 655T221 605Q221 573 200 556T152 538ZM351 538Q323 538 303 555T282 605Q282 637 302 655T351 673Q379 673 399 655T420
605Q420 573 400 556T351 538Z" />
<glyph unicode="&#xf7;" glyph-name="divide" d="M321 444Q321 408 300 390T252 371Q223 371 202 389T181 444Q181 480 202 499T252 518Q279 518 300 499T321 444ZM321 79Q321 44 300 25T252 5Q223 5 202 24T181 79Q181 115 202 134T252 154Q279 154 300 135T321
79ZM40 313H460V212H40V313Z" />
<glyph unicode="&#xf8;" glyph-name="oslash" d="M472 234Q472 178 456 133T411 54T342 3T251 -15Q219 -15 191 -8T138 13L100 -38L38 9L79 66Q55 98 42 140T29 234Q29 289 45 334T91 412T162 462T251 480Q313 480 363 451L400 502L463 455L421 398Q445 366 458
325T472 234ZM154 233Q154 217 155 203T159 174L296 362Q277 373 251 373Q203 373 179 335T154 233ZM346 233Q346 249 345 262T341 289L204 104Q223 92 249 92Q297 92 321 131T346 233Z" />
<glyph unicode="&#xf9;" glyph-name="ugrave" d="M438 16Q404 7 356 -2T250 -11Q192 -11 155 5T97 50T67 120T59 208V470H182V224Q182 159 197 128T258 96Q286 96 314 101V470H438V16ZM452 691L610 580L565 513L391 597L452 691Z" />
<glyph unicode="&#xfa;" glyph-name="uacute" d="M438 16Q404 7 356 -2T250 -11Q192 -11 155 5T97 50T67 120T59 208V470H182V224Q182 159 197 128T258 96Q286 96 314 101V470H438V16ZM615 597L441 513L396 580L554 691L615 597Z" />
<glyph unicode="&#xfb;" glyph-name="ucircumflex" d="M438 16Q404 7 356 -2T250 -11Q192 -11 155 5T97 50T67 120T59 208V470H182V224Q182 159 197 128T258 96Q286 96 314 101V470H438V16ZM390 569L341 510L252 579L163 510L112 569L252 691L390 569Z" />
<glyph unicode="&#xfc;" glyph-name="udieresis" d="M438 16Q404 7 356 -2T250 -11Q192 -11 155 5T97 50T67 120T59 208V470H182V224Q182 159 197 128T258 96Q286 96 314 101V470H438V16ZM152 538Q124 538 104 555T83 605Q83 637 103 655T152 673Q179 673 200
655T221 605Q221 573 200 556T152 538ZM351 538Q323 538 303 555T282 605Q282 637 302 655T351 673Q379 673 399 655T420 605Q420 573 400 556T351 538Z" />
<glyph unicode="&#xfd;" glyph-name="yacute" d="M472 470Q453 404 436 341T399 217T359 98T312 -15Q293 -55 275 -84T234 -131T184 -159T119 -168Q88 -168 63 -163T20 -150L43 -47Q63 -56 78 -59T112 -63Q148 -63 170 -39T205 18Q161 106 117 219T37 470H165Q174
433 185 391T210 307T237 225T267 149Q277 184 288 224T309 306T328 390T346 470H472ZM615 597L441 513L396 580L554 691L615 597Z" />
<glyph unicode="&#xfe;" glyph-name="thorn" d="M469 235Q469 181 457 136T422 58T364 7T283 -11Q236 -11 186 12V-165H63V673L186 694V472Q200 475 215 477T244 480Q353 480 411 414T469 235ZM344 231Q344 294 319 334T243 375Q229 375 213 374T186 371V113Q198
105 218 100T258 95Q302 95 323 130T344 231Z" />
<glyph unicode="&#xff;" glyph-name="ydieresis" d="M472 470Q453 404 436 341T399 217T359 98T312 -15Q293 -55 275 -84T234 -131T184 -159T119 -168Q88 -168 63 -163T20 -150L43 -47Q63 -56 78 -59T112 -63Q148 -63 170 -39T205 18Q161 106 117 219T37 470H165Q174
433 185 391T210 307T237 225T267 149Q277 184 288 224T309 306T328 390T346 470H472ZM152 538Q124 538 104 555T83 605Q83 637 103 655T152 673Q179 673 200 655T221 605Q221 573 200 556T152 538ZM351 538Q323 538 303 555T282 605Q282 637 302 655T351 673Q379
673 399 655T420 605Q420 573 400 556T351 538Z" />
<glyph unicode="&#x2013;" glyph-name="endash" d="M54 313H447V221H54V313Z" />
<glyph unicode="&#x2014;" glyph-name="emdash" d="M0 313H500V221H0V313Z" />
<glyph unicode="&#x2018;" glyph-name="quoteleft" d="M365 639Q347 636 329 633T295 623T265 606T243 576Q281 573 302 547T323 488Q323 449 298 424T233 399Q191 399 168 427T144 503Q144 537 155 572T190 638T254 690T349 719L365 639Z" />
<glyph unicode="&#x2019;" glyph-name="quoteright" d="M144 495Q162 499 180 502T215 511T245 528T266 558Q228 562 207 588T186 646Q186 685 211 710T276 735Q318 735 341 707T365 631Q365 596 354 561T319 496T255 444T160 415L144 495Z" />
<glyph unicode="&#x201a;" glyph-name="quotesinglbase" d="M126 -73Q144 -69 162 -66T197 -57T227 -40T248 -10Q210 -6 189 20T168 78Q168 117 193 142T258 167Q300 167 323 139T347 63Q347 28 336 -7T301 -72T237 -124T142 -153L126 -73Z" />
<glyph unicode="&#x201c;" glyph-name="quotedblleft" d="M480 622Q461 618 443 614T409 604T381 586T361 555Q394 553 410 532T427 484Q427 449 404 431T354 413Q315 413 296 439T277 501Q277 530 289 562T324 621T382 667T463 689L480 622ZM245 622Q226 618
208 614T173 604T145 586T125 555Q159 553 175 532T191 484Q191 449 168 431T118 413Q79 413 60 439T41 501Q41 530 53 562T88 621T146 667T227 689L245 622Z" />
<glyph unicode="&#x201d;" glyph-name="quotedblright" d="M29 513Q48 517 66 521T101 531T129 549T149 580Q115 582 99 603T83 651Q83 686 106 704T156 722Q195 722 214 696T233 634Q233 605 221 573T186 514T128 469T47 447L29 513ZM265 513Q284 517 302 521T337
531T365 549T385 580Q351 582 335 603T319 651Q319 686 341 704T392 722Q431 722 450 696T469 634Q469 605 457 573T422 514T364 469T283 447L265 513Z" />
<glyph unicode="&#x201e;" glyph-name="quotedblbase" d="M12 -77Q31 -73 49 -69T83 -59T111 -41T131 -11Q98 -8 82 13T65 61Q65 96 88 113T138 131Q177 131 196 106T215 44Q215 15 203 -17T168 -76T110 -122T29 -144L12 -77ZM247 -77Q266 -73 284 -69T319 -59T347
-41T367 -11Q333 -8 317 13T301 61Q301 96 324 113T374 131Q413 131 432 106T451 44Q451 15 439 -17T404 -76T346 -122T265 -144L247 -77Z" />
<glyph unicode="&#x2022;" glyph-name="bullet" d="M386 314Q386 285 377 260T350 214T307 183T250 171Q218 171 193 182T151 214T124 259T114 314Q114 342 123 368T150 414T193 445T250 457Q281 457 306 446T349 414T376 368T386 314Z" />
<glyph unicode="&#x2039;" glyph-name="guilsinglleft" d="M289 254L380 87L279 39L132 254L279 468L380 421L289 254Z" />
<glyph unicode="&#x203a;" glyph-name="guilsinglright" d="M155 421L256 468L403 254L256 39L155 87L246 254L155 421Z" />
</font>
</defs>
</svg>
