<?xml version="1.0" standalone="no"?>
<!DOCTYPE svg PUBLIC "-//W3C//DTD SVG 1.1//EN" "http://www.w3.org/Graphics/SVG/1.1/DTD/svg11.dtd">
<svg xmlns="http://www.w3.org/2000/svg">
<defs >
<font id="UbuntuMono" horiz-adv-x="500" ><font-face
    font-family="Ubuntu Mono"
    units-per-em="1000"
    panose-1="2 11 5 9 3 6 2 10 2 4"
    ascent="830"
    descent="-170"
    alphabetic="0" />
<glyph unicode=" " glyph-name="space" />
<glyph unicode="!" glyph-name="exclam" d="M374 451Q365 414 357 383T339 324T321 269T301 211H244Q248 241 251 268T259 324T270 383T285 451L325 619H414L374 451ZM232 -12Q206 -12 190 3T173 48Q173 84 193 104T243 124Q269 124 286 109T304 63Q304 28 282
8T232 -12Z" />
<glyph unicode="&quot;" glyph-name="quotedbl" d="M341 679L330 634Q319 590 301 534T263 430H221Q226 477 234 533T254 635L264 679H341ZM505 679L495 634Q484 590 466 534T429 430H387Q391 477 399 533T418 635L429 679H505Z" />
<glyph unicode="#" glyph-name="numbersign" d="M300 0H225L296 163H185L114 0H40L110 163H46L62 230H138L207 389H100L116 455H238L307 619H382L313 455H423L493 619H568L498 455H563L547 389H469L400 230H508L492 163H371L300 0ZM393 389H283L214 230H324L393 389Z" />
<glyph unicode="$" glyph-name="dollar" d="M244 88Q270 88 295 92T341 108T373 138T386 186Q386 206 378 220T357 245T324 266T282 287Q262 296 243 307T209 335T185 375T175 430Q175 494 218 537T347 591L371 693H444L420 593Q458 589 488 578T536 555L498 493Q483
504 454 513T382 523Q356 523 333 518T293 503T266 476T256 437Q256 400 278 381T346 339Q371 328 393 316T431 287T458 247T468 193Q468 154 455 124T416 71T357 36T281 18L255 -97H182L210 19Q164 21 125 35T70 60L110 126Q126 116 159 102T244 88Z" />
<glyph unicode="%" glyph-name="percent" d="M77 0H5L532 619H604L77 0ZM99 427Q99 457 106 493T131 559T174 611T240 632Q326 632 326 529Q326 479 315 441T284 376T239 335T186 321Q144 321 122 348T99 427ZM195 374Q214 374 227 391T248 432T260 481T264 521Q264
547 256 563T231 580Q218 580 206 569T183 537T167 491T161 435Q161 407 169 391T195 374ZM283 92Q283 122 290 158T315 224T358 276T424 297Q510 297 510 194Q510 144 499 106T468 41T423 1T370 -13Q328 -13 306 13T283 92ZM379 39Q398 39 411 56T432 97T444 146T448
186Q448 212 440 228T415 245Q402 245 390 234T367 202T351 156T345 100Q345 72 353 56T379 39Z" />
<glyph unicode="&amp;" glyph-name="ampersand" d="M322 282Q334 262 346 243T372 201Q400 256 421 333L491 324Q474 265 453 218T409 134Q423 105 435 73T458 0H372Q364 34 354 66Q314 27 272 10T186 -8Q157 -8 134 2T93 30T67 72T57 123Q57 147 63 173T84 226T123
277T184 325L204 338Q189 366 180 393T171 447Q171 491 186 525T226 584T285 620T355 633Q377 633 397 627T432 608T455 576T464 530Q464 506 456 480T430 427T382 374T309 326L298 321L322 282ZM142 135Q142 103 159 82T212 61Q240 61 269 77T327 129Q305 174
281 212T234 287L225 281Q199 265 183 248T158 213T146 176T142 135ZM285 379Q310 392 329 409T362 446T381 485T388 522Q388 545 373 556T337 568Q321 568 305 561T277 539T257 502T249 448Q249 428 253 411T269 371L285 379Z" />
<glyph unicode="&apos;" glyph-name="quotesingle" d="M432 679L421 634Q416 612 408 584T390 525T370 465T351 412H300Q302 435 305 464T314 524T324 584T336 635L346 679H432Z" />
<glyph unicode="(" glyph-name="parenleft" d="M523 637Q458 596 404 542T309 427T247 298T225 162Q225 90 251 20T337 -113L283 -167Q211 -95 179 -12T146 157Q146 236 171 313T241 462T350 594T491 701L523 637Z" />
<glyph unicode=")" glyph-name="parenright" d="M56 -103Q121 -62 176 -8T270 107T332 236T355 372Q355 444 329 514T243 647L296 701Q368 629 401 546T434 377Q434 298 409 221T339 72T230 -60T88 -167L56 -103Z" />
<glyph unicode="*" glyph-name="asterisk" d="M367 417Q395 392 423 365T472 306L476 301L406 250L402 256Q380 286 363 321T331 390Q316 357 299 322T258 256L254 251L185 301L189 307Q212 338 239 365T295 417Q258 422 219 427T145 445L138 447L164 529L171
526Q206 512 241 495T309 460Q301 496 295 535T288 612V619H374V612Q374 574 368 535T354 460Q386 479 421 495T490 525L497 528L523 446L517 444Q482 433 443 427T367 417Z" />
<glyph unicode="+" glyph-name="plus" d="M388 482L343 298H504L487 228H326L281 43H206L250 228H86L103 298H267L312 482H388Z" />
<glyph unicode="," glyph-name="comma" d="M230 -8Q202 -4 188 15T174 59Q174 93 195 116T255 139Q288 139 305 116T323 57Q323 28 311 -4T274 -65T208 -115T113 -144L105 -79Q122 -78 141 -73T178 -60T210 -39T230 -8Z" />
<glyph unicode="-" glyph-name="hyphen" d="M195 293H414L396 215H176L195 293Z" />
<glyph unicode="." glyph-name="period" d="M240 -12Q212 -12 193 5T174 55Q174 97 197 119T253 141Q281 141 301 124T321 71Q321 52 314 37T296 11T270 -6T240 -12Z" />
<glyph unicode="/" glyph-name="slash" d="M67 -165H-17L470 699H553L67 -165Z" />
<glyph unicode="0" glyph-name="zero" d="M524 447Q524 403 516 352T492 250T452 151T396 68T322 9T232 -13Q156 -13 120 33T84 172Q84 216 92 267T116 370T156 468T212 552T285 611T376 633Q452 633 488 587T524 447ZM440 437Q440 504 424 532T366 560Q324 560
288 524T225 431T183 309T168 183Q168 116 184 88T242 60Q284 60 320 96T383 188T425 310T440 437ZM300 256Q277 256 262 270T246 313Q246 348 265 367T311 387Q334 387 350 372T367 327Q367 295 347 276T300 256Z" />
<glyph unicode="1" glyph-name="one" d="M181 491Q237 511 292 541T398 619H457L325 70H441L424 0H92L109 70H243L345 496Q333 487 316 477T278 456T237 437T195 422L181 491Z" />
<glyph unicode="2" glyph-name="two" d="M524 493Q524 446 509 410T469 344T409 288T336 233Q313 216 289 197T242 156T202 113T178 70H447L430 0H69Q76 48 94 86T137 156T194 215T258 267Q293 293 325 317T383 367T423 420T438 481Q438 518 418 539T353 561Q328
561 306 555T265 539T234 520T212 502L183 566Q195 578 214 589T256 611T307 627T363 633Q406 633 437 621T487 590T515 545T524 493Z" />
<glyph unicode="3" glyph-name="three" d="M221 60Q257 60 287 68T340 94T375 136T388 196Q388 249 350 272T246 296H228L244 363H271Q300 363 328 371T379 394T416 433T430 486Q430 524 407 543T342 562Q304 562 273 550T220 523L200 588Q212 596 229 604T266
618T309 629T355 633Q397 633 427 623T476 593T505 549T514 495Q514 435 480 394T387 330Q402 324 417 313T445 285T464 246T472 197Q472 150 456 111T407 45T328 2T218 -13Q187 -13 161 -9T114 1T79 13T60 23L91 94Q104 86 136 73T221 60Z" />
<glyph unicode="4" glyph-name="four" d="M400 158L363 0H282L320 158H48L62 214Q87 256 127 310T217 419T322 527T430 619H511L416 226H488L472 158H400ZM406 515Q374 488 340 455T271 384T206 306T149 226H337L406 515Z" />
<glyph unicode="5" glyph-name="five" d="M320 549Q314 531 307 508T291 462T276 417T264 380Q366 367 417 325T469 205Q469 159 454 120T406 51T325 4T207 -13Q178 -13 153 -9T108 1T74 12T56 21L88 91Q101 83 131 72T212 60Q248 60 280 69T335 96T371 139T385
197Q385 239 363 262T307 298T236 313T165 319Q180 360 193 397T218 471T241 543T262 619H551L535 549H320Z" />
<glyph unicode="6" glyph-name="six" d="M196 284Q187 255 183 226T178 172Q178 116 198 85T269 54Q304 54 331 69T376 108T403 162T413 223Q413 266 392 288T322 311Q290 311 259 306T196 284ZM96 165Q96 259 127 342T217 487T356 585T538 622H550L540 551H536Q473
551 422 535T330 491T262 427T217 350Q246 364 279 372T342 380Q382 380 411 368T459 336T486 289T495 232Q495 187 482 144T439 65T365 9T257 -13Q179 -13 138 34T96 165Z" />
<glyph unicode="7" glyph-name="seven" d="M139 0Q159 71 197 150T283 304T382 443T480 549H186L202 619H590L573 547Q535 514 485 456T386 324T294 167T227 0H139Z" />
<glyph unicode="8" glyph-name="eight" d="M407 312Q437 291 458 262T480 184Q480 145 465 109T421 46T347 3T243 -13Q198 -13 167 -1T117 31T88 76T79 126Q79 191 116 241T221 323Q167 366 167 434Q167 474 181 510T224 573T291 617T381 633Q423 633 452 621T501
590T529 546T538 496Q538 434 503 388T407 312ZM283 292Q259 281 237 265T198 230T171 187T161 140Q161 123 165 108T180 80T209 61T254 54Q284 54 310 63T355 88T386 126T397 176Q397 220 367 246T283 292ZM342 340Q364 351 384 365T421 398T446 438T455 487Q455
500 452 514T439 539T413 558T371 565Q345 565 323 556T284 531T258 492T248 442Q248 405 270 381T342 340Z" />
<glyph unicode="9" glyph-name="nine" d="M289 243Q249 243 220 254T173 286T145 332T136 389Q136 434 150 477T192 555T265 611T368 632Q451 632 493 584T535 454Q535 358 505 275T419 131T281 34T97 -2Q92 -2 88 -2T74 -1L89 70Q92 69 97 69T105 69Q168 69 217
84T304 127T369 192T414 271Q385 257 353 250T289 243ZM309 312Q341 312 372 317T436 338Q453 394 453 455Q453 504 432 534T362 564Q327 564 300 550T255 512T228 459T218 398Q218 355 239 334T309 312Z" />
<glyph unicode=":" glyph-name="colon" d="M240 -12Q212 -12 193 5T174 55Q174 97 197 119T253 141Q281 141 301 124T321 71Q321 52 314 37T296 11T270 -6T240 -12ZM317 310Q289 310 270 327T251 377Q251 419 274 441T330 463Q358 463 378 446T398 393Q398 374
391 359T373 333T347 316T317 310Z" />
<glyph unicode=";" glyph-name="semicolon" d="M230 -8Q202 -4 188 15T174 59Q174 93 195 116T255 139Q288 139 305 116T323 57Q323 28 311 -4T274 -65T208 -115T113 -144L105 -79Q122 -78 141 -73T178 -60T210 -39T230 -8ZM317 310Q289 310 270 327T251 377Q251
419 274 441T330 463Q358 463 378 446T398 393Q398 374 391 359T373 333T347 316T317 310Z" />
<glyph unicode="&lt;" glyph-name="less" d="M417 55L78 219L95 290L513 454L518 380L177 250L455 121L417 55Z" />
<glyph unicode="=" glyph-name="equal" d="M126 393H527L510 322H109L126 393ZM80 203H481L464 132H63L80 203Z" />
<glyph unicode="&gt;" glyph-name="greater" d="M161 454L500 290L483 219L65 55L60 129L401 259L123 388L161 454Z" />
<glyph unicode="?" glyph-name="question" d="M226 211L229 230Q234 259 251 283T292 328T340 369T387 409T422 452T436 501Q436 529 418 547T357 565Q328 565 301 559T241 538L232 602Q256 615 293 624T369 633Q397 633 424 627T472 607T505 570T518 512Q518
475 504 447T467 395T417 351T366 310T323 265T299 211H226ZM222 -12Q196 -12 180 3T163 48Q163 84 184 104T233 124Q259 124 276 109T294 63Q294 28 272 8T222 -12Z" />
<glyph unicode="@" glyph-name="at" d="M467 63Q443 53 417 48T367 43Q337 43 311 51T264 78T231 124T219 194Q219 240 232 282T273 358T344 410T447 430Q454 430 461 430T477 428Q483 453 483 477Q483 515 464 539T396 564Q342 564 296 526T217 427T165 295T146
154Q146 109 155 69T182 0T230 -47T300 -65Q317 -65 335 -63T375 -54L368 -121Q323 -133 285 -133Q229 -133 188 -111T121 -50T82 41T69 154Q69 208 79 265T110 375T159 475T225 558T306 613T402 634Q482 634 520 591T559 480Q559 445 550 408L467 63ZM460 358Q442
364 426 364Q394 364 370 350T329 313T304 260T296 195Q296 153 314 131T368 108Q376 108 383 109T401 113L460 358Z" />
<glyph unicode="A" glyph-name="A" d="M383 0L384 162H146L70 0H-13Q20 66 60 143T143 301T233 463T327 619H425Q436 545 443 464T456 301T464 143T469 0H383ZM357 547Q319 484 273 401T181 230H381Q379 320 372 403T357 547Z" />
<glyph unicode="B" glyph-name="B" d="M191 -5Q175 -5 156 -4T116 -2T78 3T45 10L188 610Q204 614 224 617T265 621T305 624T341 625Q422 625 472 596T523 499Q523 440 495 396T400 326Q435 316 461 285T487 212Q487 108 411 52T191 -5ZM193 289L139 68Q141 67
161 66T213 64Q246 64 280 70T341 92T386 136T404 208Q404 254 368 271T277 289H193ZM209 357H274Q304 357 334 362T388 382T426 421T441 481Q441 501 432 515T408 538T373 551T330 555Q304 555 285 555T256 552L209 357Z" />
<glyph unicode="C" glyph-name="C" d="M279 -13Q191 -13 140 45T89 202Q89 281 112 358T178 497T284 595T424 633Q484 633 520 617T574 587L535 521Q518 536 486 548T418 560Q360 560 315 530T238 451T189 341T172 215Q172 143 204 102T297 60Q345 60 382 72T437
96L446 26Q440 21 425 15T388 2T338 -8T279 -13Z" />
<glyph unicode="D" glyph-name="D" d="M523 405Q523 326 502 252T437 121T325 30T163 -5Q131 -5 98 -2T36 9L179 610Q245 625 306 625Q408 625 465 568T523 405ZM132 71Q140 69 154 68T180 66Q236 66 283 90T366 157T420 262T440 396Q440 472 405 513T295 554Q268
554 246 551L132 71Z" />
<glyph unicode="E" glyph-name="E" d="M71 0L221 619H567L550 549H286L240 359H472L455 289H223L171 70H457L440 0H71Z" />
<glyph unicode="F" glyph-name="F" d="M71 0L221 619H572L555 549H286L239 356H476L459 287H222L154 0H71Z" />
<glyph unicode="G" glyph-name="G" d="M265 -13Q223 -13 189 2T130 45T93 113T80 202Q80 281 103 358T169 497T275 595T415 633Q446 633 469 629T509 617T538 602T558 587L519 521Q502 536 474 548T409 561Q351 561 306 531T229 452T180 341T163 215Q163 143 195
101T288 59Q313 59 331 62T361 70L417 304H499L430 14Q422 11 406 7T367 -2T319 -10T265 -13Z" />
<glyph unicode="H" glyph-name="H" d="M495 619H577L428 0H346L415 288H187L117 0H36L184 619H266L204 358H432L495 619Z" />
<glyph unicode="I" glyph-name="I" d="M405 549L289 70H409L392 0H71L88 70H207L322 549H203L220 619H541L524 549H405Z" />
<glyph unicode="J" glyph-name="J" d="M554 619L454 199Q443 156 429 118T390 50T325 4T225 -13Q194 -13 169 -7T123 7T88 26T67 44L110 109Q117 102 128 93T154 77T187 64T227 58Q287 58 320 93T373 207L455 549H245L261 619H554Z" />
<glyph unicode="K" glyph-name="K" d="M588 619Q552 581 517 545T444 473T368 400T284 322Q305 298 329 265T378 190T425 100T467 0H378Q340 106 295 178T198 298L127 0H45L193 619H275L210 348Q294 423 361 489T486 619H588Z" />
<glyph unicode="L" glyph-name="L" d="M421 70L405 0H54L203 619H285L153 70H421Z" />
<glyph unicode="M" glyph-name="M" d="M481 619H558Q552 556 541 483T517 331T487 168T453 0H373Q385 54 399 118T429 249T459 385T486 517L328 235H256Q254 272 252 310T246 386T239 456T232 517Q215 449 197 380T161 243T127 115T96 0H18Q61 160 108 311T212
619H288Q295 538 300 464T311 311L481 619Z" />
<glyph unicode="N" glyph-name="N" d="M349 0Q335 83 322 151T295 279T265 393T234 503L115 0H40L189 619H270Q293 544 309 487T339 377T364 266T389 134L504 619H579L430 0H349Z" />
<glyph unicode="O" glyph-name="O" d="M369 562Q320 562 282 526T217 434T177 313T163 190Q163 119 187 89T254 58Q303 58 341 94T405 186T444 307T458 430Q458 500 435 531T369 562ZM379 633Q451 633 496 586T541 436Q541 399 534 352T512 254T474 156T417 71T341
10T244 -13Q171 -13 126 34T80 184Q80 221 87 268T109 366T148 464T205 549T281 610T379 633Z" />
<glyph unicode="P" glyph-name="P" d="M357 625Q439 625 490 587T541 472Q541 418 521 374T464 298T376 249T263 231H191L135 0H54L199 610Q212 613 232 615T274 620T317 624T357 625ZM344 555Q321 555 300 554T268 551L207 301H274Q363 301 411 344T459 464Q459
489 449 506T423 535T386 550T344 555Z" />
<glyph unicode="Q" glyph-name="Q" d="M379 633Q451 633 496 586T541 436Q541 401 535 356T516 264T481 170T431 86T362 22T275 -11V-18Q275 -50 313 -70T413 -99L377 -165Q341 -158 307 -149T246 -122T205 -79T189 -10V-5Q139 9 110 55T80 184Q80 221 87 268T109
366T148 464T205 549T281 610T379 633ZM369 562Q320 562 282 526T217 434T177 313T163 190Q163 119 187 89T254 58Q303 58 341 94T405 186T444 307T458 430Q458 500 435 531T369 562Z" />
<glyph unicode="R" glyph-name="R" d="M528 477Q528 392 483 337T364 259Q377 232 388 207T410 153T430 86T451 0H367Q356 53 346 90T325 155T305 203T285 244H185L126 0H45L190 610Q206 614 225 617T265 621T304 624T340 625Q438 625 483 585T528 477ZM334 555Q311
555 290 554T258 551L201 312H251Q291 312 326 318T388 342T430 389T446 464Q446 512 415 533T334 555Z" />
<glyph unicode="S" glyph-name="S" d="M238 59Q265 59 291 65T339 84T372 120T385 176Q385 198 377 214T354 244T320 269T277 293Q256 304 236 317T201 347T177 389T167 449Q167 530 223 581T395 633Q420 633 444 629T487 619T522 607T545 595L506 529Q491 542
458 551T380 561Q352 561 329 555T288 537T260 504T250 457Q250 434 257 418T276 390T305 368T344 347Q370 333 393 320T432 288T458 244T468 184Q468 135 451 98T402 37T326 0T228 -13Q159 -13 115 3T54 31L92 99Q109 88 145 74T238 59Z" />
<glyph unicode="T" glyph-name="T" d="M589 619L572 549H403L271 0H188L321 549H152L169 619H589Z" />
<glyph unicode="U" glyph-name="U" d="M237 -13Q196 -13 167 1T119 38T90 93T81 158Q81 188 89 222L184 619H266L171 223Q163 189 163 160Q163 139 167 121T182 88T208 66T249 58Q276 58 298 64T338 88T370 135T396 212L494 619H576L476 202Q464 151 447 111T402
44T334 2T237 -13Z" />
<glyph unicode="V" glyph-name="V" d="M222 619Q223 441 230 305T244 72Q314 201 384 334T524 619H612Q597 587 564 520T485 368T386 186T278 0H176Q166 90 159 186T146 367T139 520T136 619H222Z" />
<glyph unicode="W" glyph-name="W" d="M306 309L136 0H59Q65 64 76 137T101 290T131 453T163 619H244Q232 567 218 503T188 370T157 232T128 100Q143 128 162 162T203 234T245 310T286 384H357Q359 350 362 312T368 235T375 162T381 100Q399 164 418 232T455 369T490
501T521 619H600Q556 463 510 313T405 0H329L306 309Z" />
<glyph unicode="X" glyph-name="X" d="M388 0Q375 64 357 128T315 257L107 0H9L281 330L176 619H266L344 394Q390 450 433 506T514 619H608Q557 545 496 470T375 325Q389 289 403 248T431 164T455 79T474 0H388Z" />
<glyph unicode="Y" glyph-name="Y" d="M622 619Q562 521 489 425T334 232L278 0H196L251 230Q214 330 188 425T147 619H229Q238 538 260 452T305 293Q335 332 366 374T426 458T483 542T533 619H622Z" />
<glyph unicode="Z" glyph-name="Z" d="M556 550Q514 506 460 446T348 320T238 189T146 70H450L434 0H36L52 68Q99 129 150 192T254 318T359 439T460 549H179L196 619H572L556 550Z" />
<glyph unicode="[" glyph-name="bracketleft" d="M306 699H547L531 634H369L192 -100H355L338 -165H98L306 699Z" />
<glyph unicode="\" glyph-name="backslash" d="M219 699H302L371 -165H287L219 699Z" />
<glyph unicode="]" glyph-name="bracketright" d="M265 -165H25L40 -100H203L380 634H217L233 699H473L265 -165Z" />
<glyph unicode="^" glyph-name="asciicircum" d="M369 533L170 284L109 321L348 619H419L516 313L448 283L369 533Z" />
<glyph unicode="_" glyph-name="underscore" d="M-10 -95H437L420 -165H-27L-10 -95Z" />
<glyph unicode="`" glyph-name="grave" d="M321 691L435 548L391 509L261 640L321 691Z" />
<glyph unicode="a" glyph-name="a" d="M376 -5Q371 5 367 16T361 42Q341 24 306 7T222 -11Q144 -11 108 36T71 155Q71 215 91 272T151 374T253 446T395 474Q407 474 422 473T454 469T485 462T513 451L445 171Q440 150 437 132T433 92Q433 71 437 51T449 5L376
-5ZM239 57Q277 57 306 73T356 111Q357 126 359 145T366 181L421 400Q416 402 402 403T380 405Q329 405 288 385T216 332T170 255T154 164Q154 141 158 122T171 88T197 66T239 57Z" />
<glyph unicode="b" glyph-name="b" d="M248 446Q269 459 296 467T353 475Q392 475 420 463T467 429T495 377T505 312Q505 250 486 192T426 89T326 17T184 -10Q157 -10 122 -4T63 18L221 679L307 693L248 446ZM332 405Q305 405 278 396T228 370L155 67Q175 62 199
62Q250 62 291 82T362 135T407 212T423 303Q423 323 419 341T405 374T377 396T332 405Z" />
<glyph unicode="c" glyph-name="c" d="M71 166Q71 227 91 283T151 382T248 450T381 476Q422 476 453 471T511 454L480 384Q463 392 440 399T374 406Q323 406 282 387T213 335T169 261T154 174Q154 151 160 131T182 94T225 69T295 60Q317 60 338 63T377 71T408
81T429 91L436 21Q418 10 378 -1T280 -12Q176 -12 124 38T71 166Z" />
<glyph unicode="d" glyph-name="d" d="M442 92Q442 71 446 51T458 5L385 -5Q380 4 376 16T370 42Q350 24 317 7T232 -11Q154 -11 117 35T80 155Q80 215 100 272T160 374T260 446T399 474Q422 474 445 471L495 679L580 693L454 171Q449 150 446 132T442 92ZM248
57Q286 57 315 73T365 111Q366 126 368 145T375 181L430 400Q425 402 411 403T388 405Q337 405 296 385T225 332T179 255T163 164Q163 141 167 122T180 88T206 66T248 57Z" />
<glyph unicode="e" glyph-name="e" d="M162 244Q222 245 270 249T351 266T403 299T421 354Q421 362 418 371T406 388T382 401T345 406Q311 406 282 393T228 357T188 305T162 244ZM263 -12Q214 -12 178 2T118 41T83 96T71 162Q71 225 90 282T147 381T236 449T355
475Q394 475 422 466T468 441T494 404T503 360Q503 297 471 262T388 210T275 187T152 180Q146 117 185 89T288 60Q309 60 331 63T373 71T408 81T429 91L436 21Q417 11 374 0T263 -12Z" />
<glyph unicode="f" glyph-name="f" d="M344 395L263 18Q252 -32 238 -67T201 -125T148 -158T73 -168Q58 -168 39 -164T9 -152L28 -83Q49 -96 86 -96Q126 -96 148 -65T181 17L261 395H161L178 464H276L285 506Q304 596 352 644T497 693Q528 693 556 687T598 673L565
607Q557 611 541 616T489 622Q460 622 440 614T405 590T382 553T367 505L358 464H546L529 395H344Z" />
<glyph unicode="g" glyph-name="g" d="M179 -98Q253 -98 293 -66T347 31L351 48Q333 38 301 29T236 19Q163 19 125 55T86 156Q86 216 105 273T165 375T265 447T405 474Q417 474 434 473T468 470T502 463T531 451L428 40Q416 -8 399 -46T353 -112T277 -153T161
-168Q123 -168 85 -158T21 -132L53 -63Q73 -78 107 -88T179 -98ZM254 87Q272 87 289 91T321 101T349 113T370 126L435 400Q426 402 413 403T388 405Q340 405 300 385T230 332T184 257T168 172Q168 124 189 106T254 87Z" />
<glyph unicode="h" glyph-name="h" d="M45 0L207 679L293 693L236 457Q256 465 279 469T325 474Q365 474 394 463T441 433T467 386T476 327Q476 306 472 283T462 236L405 0H323L375 218Q381 243 387 269T394 320Q394 355 374 378T301 402Q256 402 221 388L126 0H45Z" />
<glyph unicode="i" glyph-name="i" d="M305 205Q300 185 297 167T293 132Q293 104 307 86T363 67Q380 67 396 69T426 76L421 6Q414 4 396 1T343 -3Q306 -3 281 7T240 34T218 74T211 124Q211 145 214 167T223 212L268 395H134L150 464H366L305 205ZM330 536Q304
536 287 551T270 595Q270 630 292 650T341 670Q367 670 384 654T402 609Q402 592 396 579T379 556T356 541T330 536Z" />
<glyph unicode="j" glyph-name="j" d="M191 395L207 464H477L367 6Q344 -90 290 -129T154 -168Q79 -168 21 -132L53 -63Q63 -71 76 -77T105 -87T135 -94T163 -97Q215 -97 243 -74T285 8L379 395H191ZM428 536Q402 536 385 551T368 595Q368 630 390 650T439 670Q465
670 482 654T500 609Q500 592 494 579T477 556T454 541T428 536Z" />
<glyph unicode="k" glyph-name="k" d="M63 0L226 679L312 693L211 277Q271 321 333 369T447 464H545Q520 438 487 409T418 352T348 297T288 252Q311 232 335 203T382 140T424 70T456 0H367Q335 72 292 133T201 232L145 0H63Z" />
<glyph unicode="l" glyph-name="l" d="M313 618H179L196 688H412L292 189Q287 169 284 151T281 116Q281 87 295 73T347 59Q373 59 398 68T437 85L443 15Q429 7 398 -2T324 -11Q258 -11 229 17T199 103Q199 144 212 196L313 618Z" />
<glyph unicode="m" glyph-name="m" d="M139 451Q202 474 254 474Q282 474 303 466T338 440Q387 474 434 474Q457 474 475 465T505 438T520 393T514 330L436 0H361L440 332Q449 368 439 387T406 406Q381 406 355 381Q355 370 354 357T349 330L313 179H238L275 331Q284
366 278 386T243 406Q225 406 201 397L105 0H31L139 451Z" />
<glyph unicode="n" glyph-name="n" d="M145 0H63L170 447Q211 459 258 466T343 474Q383 474 412 463T459 433T485 386T494 327Q494 306 490 284T480 238L423 0H341L394 220Q400 245 406 270T412 320Q412 355 392 378T319 402Q296 402 275 400T239 392L145 0Z" />
<glyph unicode="o" glyph-name="o" d="M237 -11Q163 -11 122 32T80 151Q80 203 94 260T141 365T225 444T348 475Q422 475 463 432T505 313Q505 261 491 204T444 99T360 20T237 -11ZM251 63Q291 63 323 85T377 143T410 221T422 306Q422 351 402 376T334 402Q294
402 262 380T208 322T175 243T163 158Q163 113 183 88T251 63Z" />
<glyph unicode="p" glyph-name="p" d="M337 475Q380 475 412 463T464 429T495 377T505 312Q505 250 487 192T429 89T331 17T190 -11Q180 -11 164 -9T138 -4L100 -165H18L164 445Q182 452 204 458T250 467T295 473T337 475ZM156 68Q165 66 179 65T204 63Q255 63
295 82T364 135T408 211T423 302Q423 322 419 340T402 373T369 396T316 405Q294 405 271 401T235 394L156 68Z" />
<glyph unicode="q" glyph-name="q" d="M291 -165L334 15Q313 4 287 -3T232 -11Q154 -11 117 35T80 155Q80 215 100 272T160 374T262 446T404 474Q416 474 432 473T466 468T499 461T526 451L373 -165H291ZM254 57Q280 57 306 68T355 96L429 400Q417 402 406 403T387
405Q336 405 295 385T224 332T179 255T163 164Q163 144 166 125T179 91T207 67T254 57Z" />
<glyph unicode="r" glyph-name="r" d="M89 0L195 440Q301 474 408 474Q439 474 463 472T522 462L491 389Q476 393 464 395T440 399T418 401T391 402Q360 402 328 398T263 386L171 0H89Z" />
<glyph unicode="s" glyph-name="s" d="M242 58Q264 58 285 61T324 73T351 95T362 129Q362 157 339 173T273 209Q253 219 234 229T201 252T177 283T168 328Q168 395 220 435T367 475Q414 475 448 467T500 450L469 380Q454 389 424 397T355 405Q335 405 316 402T281
390T257 369T248 336Q248 312 272 296T334 263Q357 254 377 243T411 218T434 184T442 139Q442 101 427 73T385 26T321 -2T238 -12Q181 -12 140 1T79 25L112 95Q128 84 162 71T242 58Z" />
<glyph unicode="t" glyph-name="t" d="M439 13Q410 3 379 -4T312 -11Q283 -11 259 -5T216 14T187 51T176 109Q176 131 179 155T189 204L236 395H138L154 464H253L284 594L370 608L335 464H513L497 395H318L271 196Q266 177 262 159T258 124Q258 86 275 74T325
61Q356 61 385 67T441 84L439 13Z" />
<glyph unicode="u" glyph-name="u" d="M222 -10Q183 -10 157 1T115 32T91 78T84 135Q84 158 88 181T97 227L154 464H237L184 245Q179 224 173 197T166 141Q166 125 169 111T180 85T202 67T238 60Q276 60 306 76T355 115Q356 129 357 144T364 178L433 464H515L445
171Q440 150 437 131T434 91Q434 70 437 50T450 5L377 -5Q372 5 368 17T361 44Q341 26 307 8T222 -10Z" />
<glyph unicode="v" glyph-name="v" d="M193 0Q171 92 154 213T134 464H218Q219 420 222 371T230 272T241 176T254 93Q281 127 309 173T365 269T414 370T450 464H534Q514 405 484 342T419 218T345 100T269 0H193Z" />
<glyph unicode="w" glyph-name="w" d="M372 107Q414 204 445 293T501 464H578Q561 414 541 357T497 239T447 118T394 0H326Q321 30 318 57T311 113T304 173T298 242Q274 201 256 170T220 112T186 58T148 0H80Q82 123 92 243T116 464H194Q187 425 182 387T171 307T161
214T151 101Q176 143 194 174T229 233T260 288T294 351H352Q353 315 355 288T359 235T365 179T372 107Z" />
<glyph unicode="x" glyph-name="x" d="M308 298Q329 321 350 345T392 391T428 432T453 464H542Q536 456 522 439T488 399T448 353T406 306T370 266T344 237Q373 180 400 123T450 0H363Q345 49 328 90T288 176L114 0H18L251 239L136 464H228L308 298Z" />
<glyph unicode="y" glyph-name="y" d="M283 75Q317 129 344 186T393 296T428 393T449 464H536Q526 430 508 380T465 271T407 151T338 34Q310 -8 282 -45T221 -109T149 -152T60 -168Q35 -168 14 -162T-18 -148L11 -80Q19 -88 34 -92T69 -97Q121 -97 156 -76T225
-6Q192 103 167 222T137 464H221Q222 424 227 376T240 277T260 174T283 75Z" />
<glyph unicode="z" glyph-name="z" d="M494 405Q468 382 424 340T333 248T241 152T171 70H421L405 0H58L71 54Q98 93 138 140T223 235T311 325T386 395H165L183 464H509L494 405Z" />
<glyph unicode="{" glyph-name="braceleft" d="M89 235L105 299H146Q166 299 182 306T212 326T233 354T246 386L284 547Q294 588 308 617T347 664T405 690T488 699H572L555 634H475Q451 634 432 631T400 619T376 592T360 546L327 408Q313 349 292 316T233 267Q252
251 260 231T269 187Q269 171 266 156T260 126L227 -12Q221 -38 221 -52Q221 -81 239 -90T298 -100H382L365 -165H278Q213 -165 179 -143T144 -66Q144 -41 151 -13L189 148Q193 161 193 174Q193 199 179 217T129 235H89Z" />
<glyph unicode="|" glyph-name="bar" d="M361 699H439L231 -165H153L361 699Z" />
<glyph unicode="}" glyph-name="braceright" d="M482 299L466 235H426Q406 235 389 228T360 208T339 180T326 148L288 -13Q278 -54 263 -83T225 -130T167 -156T84 -165H0L16 -100H96Q121 -100 139 -97T172 -85T196 -58T212 -12L245 126Q259 185 280 218T338 267Q319
283 311 303T303 347Q303 363 305 378T312 408L345 546Q347 559 349 568T351 586Q351 615 333 624T273 634H189L206 699H294Q359 699 393 677T428 600Q428 589 426 576T421 547L382 386Q379 371 379 360Q379 335 393 317T442 299H482Z" />
<glyph unicode="~" glyph-name="asciitilde" d="M308 300Q329 286 345 274T385 262Q400 262 411 269T432 286T449 309T461 332L518 314Q511 294 499 273T469 232T428 201T373 189Q341 189 322 201T285 226Q265 241 249 252T208 264Q193 264 181 257T160 240T144
217T132 194L75 212Q82 231 94 253T124 294T165 325T220 337Q252 337 271 325T308 300Z" />
<glyph unicode="&#xa0;" glyph-name="uni00A0" />
<glyph unicode="&#xa1;" glyph-name="exclamdown" d="M185 3Q194 40 202 71T220 130T238 185T258 243H315Q311 213 308 186T300 130T289 71T274 3L234 -165H145L185 3ZM327 465Q353 465 369 451T386 405Q386 369 366 350T316 330Q290 330 273 345T255 391Q255
426 277 445T327 465Z" />
<glyph unicode="&#xa2;" glyph-name="cent" d="M390 424Q342 424 303 405T235 355T192 285T176 204Q176 182 182 163T203 130T245 107T310 98Q327 98 345 101T380 108T409 117T427 127L433 58Q417 48 381 39T297 28L268 -97H196L226 32Q160 48 128 88T95 201Q95
249 110 296T157 383T233 451T338 490L368 619H440L411 495Q437 493 462 489T510 473L480 407Q464 415 443 419T390 424Z" />
<glyph unicode="&#xa3;" glyph-name="sterling" d="M276 333H445L429 266H260L258 259Q247 214 232 165T198 71H457L440 0H88Q113 64 135 126T173 253L177 266H94L110 333H193L211 407Q227 474 248 517T299 586T364 620T447 630Q493 630 519 622T565 602L528 535Q507
546 485 552T436 558Q410 558 389 551T350 526T318 481T294 409L276 333Z" />
<glyph unicode="&#xa4;" glyph-name="currency" d="M131 310Q131 365 156 405L91 471L143 522L209 455Q252 481 304 481Q356 481 397 455L464 522L516 471L450 405Q476 365 476 310Q476 281 470 258T450 215L516 149L464 97L397 163Q356 138 304 138Q250 138 209
163L143 97L91 149L156 214Q131 254 131 310ZM409 310Q409 361 378 391T304 421Q282 421 263 413T230 391T207 356T198 310Q198 284 206 264T229 229T263 207T304 199Q347 199 378 229T409 310Z" />
<glyph unicode="&#xa5;" glyph-name="yen" d="M196 0L219 95H74L89 158H234L255 249H111L126 313H247Q215 393 192 465T147 619H234Q248 546 270 475T316 344Q368 406 422 478T522 619H616Q559 539 500 465T374 313H497L481 249H338L316 158H460L445 95H301L278 0H196Z" />
<glyph unicode="&#xa6;" glyph-name="brokenbar" d="M235 177H313L231 -165H153L235 177ZM361 699H439L356 357H279L361 699Z" />
<glyph unicode="&#xa7;" glyph-name="section" d="M238 121Q213 130 191 139T153 164T127 200T117 255Q117 303 148 342T226 407Q200 433 200 480Q200 516 214 544T254 592T316 622T396 633Q441 633 473 624T527 605L496 540Q480 548 455 557T389 566Q341 566
311 549T281 492Q281 466 298 452T355 423Q380 413 402 404T440 380T465 344T475 289Q475 238 444 201T366 137Q379 125 390 106T401 53Q401 20 388 -7T348 -55T284 -86T195 -97Q146 -97 109 -89T45 -66L77 -1Q94 -11 126 -20T201 -30Q260 -30 290 -10T320 45Q320
62 314 73T298 92T272 107T238 121ZM315 171Q345 185 371 213T397 280Q397 297 389 310T367 332T335 350T294 366Q281 371 279 373Q264 366 249 355T222 330T203 299T195 264Q195 247 203 234T225 212T258 194T298 178Q303 176 307 175T315 171Z" />
<glyph unicode="&#xa8;" glyph-name="dieresis" d="M287 550Q267 550 254 562T240 596Q240 622 258 638T296 655Q316 655 330 643T344 608Q344 582 326 566T287 550ZM456 550Q436 550 423 562T410 596Q410 622 427 638T466 655Q486 655 499 643T513 608Q513 582
495 566T456 550Z" />
<glyph unicode="&#xa9;" glyph-name="copyright" d="M446 231Q446 279 433 314T397 373T346 409T288 421Q258 421 230 409T179 374T143 315T129 233Q129 185 142 150T178 91T229 55T288 43Q318 43 346 55T396 90T432 149T446 231ZM364 120Q347 112 329 108T294
104Q265 104 244 114T208 142T186 182T179 229Q179 253 186 276T207 317T243 346T295 357Q310 357 327 355T363 344L342 290Q331 295 321 296T300 298Q269 298 256 278T242 233Q242 201 258 183T305 164Q313 164 325 166T347 173L364 120ZM71 231Q71 292 90 338T139
414T209 460T288 475Q328 475 367 460T436 415T485 339T504 233Q504 172 485 127T436 51T366 5T287 -11Q246 -11 208 4T139 50T90 125T71 231Z" />
<glyph unicode="&#xaa;" glyph-name="ordfeminine" d="M288 295Q230 295 205 327T179 413Q179 454 193 493T236 563T308 613T408 632Q425 632 448 628T491 616L442 435Q434 405 434 380Q434 357 438 342T450 307L388 296Q385 301 381 310T375 328Q362 315 341
305T288 295ZM414 575Q412 576 408 577T396 578Q362 578 334 565T286 530T255 479T244 419Q244 392 255 371T303 349Q323 349 339 359T370 383Q370 397 373 412T379 439L414 575Z" />
<glyph unicode="&#xab;" glyph-name="guillemotleft" d="M107 254L268 438L314 403L191 249L241 110L188 81L107 254ZM287 254L447 438L494 403L371 249L421 110L368 81L287 254Z" />
<glyph unicode="&#xac;" glyph-name="logicalnot" d="M518 347L446 43H374L430 277H92L109 347H518Z" />
<glyph unicode="&#xad;" glyph-name="uni00AD" d="M195 293H414L396 215H176L195 293Z" />
<glyph unicode="&#xae;" glyph-name="registered" d="M446 231Q446 279 433 314T397 373T346 409T288 421Q258 421 230 409T179 374T143 315T129 233Q129 185 142 150T178 91T229 55T288 43Q318 43 346 55T396 90T432 149T446 231ZM71 231Q71 292 90 338T139 414T209
460T288 475Q328 475 367 460T436 415T485 339T504 233Q504 172 485 127T436 51T366 5T287 -11Q246 -11 208 4T139 50T90 125T71 231ZM257 187V110H204V348Q217 352 234 354T271 357Q328 357 355 335T382 271Q382 222 343 200Q354 183 367 160T394 110H337Q324
134 314 152T294 187H257ZM257 237H276Q303 237 316 244T329 274Q329 294 313 300T280 307Q273 307 268 307T257 305V237Z" />
<glyph unicode="&#xaf;" glyph-name="overscore" d="M250 635H500L485 571H235L250 635Z" />
<glyph unicode="&#xb0;" glyph-name="degree" d="M473 569Q473 540 463 517T436 478T396 454T348 445Q323 445 301 453T261 478T233 517T223 569Q223 598 233 621T260 660T300 684T348 693Q373 693 395 685T435 660T463 621T473 569ZM413 569Q413 601 394 619T348
637Q322 637 303 619T283 569Q283 537 302 519T348 501Q375 501 394 519T413 569Z" />
<glyph unicode="&#xb1;" glyph-name="plusminus" d="M405 554L363 374H525L508 304H346L302 124H227L270 304H107L124 374H287L330 554H405ZM451 71L434 0H33L50 71H451Z" />
<glyph unicode="&#xb2;" glyph-name="twosuperior" d="M432 338L419 281H184Q188 313 198 337T225 379T261 413T305 443Q328 457 345 468T374 491T392 514T398 541Q398 560 386 569T355 578Q317 578 295 565T262 542L240 586Q258 603 289 618T362 633Q413 633
437 610T462 546Q462 520 450 499T419 459T378 426T335 399Q316 386 294 372T263 338H432Z" />
<glyph unicode="&#xb3;" glyph-name="threesuperior" d="M289 329Q307 329 325 332T356 342T378 361T387 393Q387 418 364 428T302 439H283L296 489H318Q330 489 345 492T374 501T397 517T407 542Q407 563 395 571T357 579Q333 579 310 572T273 557L261 604Q268
609 281 614T310 623T342 630T372 633Q426 633 447 612T469 560Q469 525 451 504T400 466Q422 458 435 441T449 395Q449 335 405 305T288 274Q252 274 227 281T183 298L207 348Q223 340 244 335T289 329Z" />
<glyph unicode="&#xb4;" glyph-name="acute" d="M491 626L340 512L305 556L446 691L491 626Z" />
<glyph unicode="&#xb5;" glyph-name="mu" d="M354 103Q354 126 356 148T364 196L430 464H512L446 188Q441 168 438 151T434 117Q434 94 445 79T485 59L466 -8Q429 -7 407 5T371 39Q306 -11 218 -11Q190 -11 166 1T129 34Q125 11 120 -17T108 -73L86 -165H4L154
464H237L184 245Q179 224 173 197T166 141Q166 125 169 111T180 86T203 69T241 63Q276 63 302 72T354 103Z" />
<glyph unicode="&#xb6;" glyph-name="paragraph" d="M420 556Q415 556 410 556T399 555L226 -165H156L252 234Q207 237 177 249T128 280T102 325T94 379Q94 444 122 490T196 567T299 611T416 625Q451 625 491 622T563 610L377 -165H307L480 552Q471 554 456 555T420 556Z" />
<glyph unicode="&#xb7;" glyph-name="middot" d="M285 184Q257 184 238 201T219 251Q219 293 242 315T298 337Q326 337 346 320T366 267Q366 248 359 233T341 207T315 190T285 184Z" />
<glyph unicode="&#xb8;" glyph-name="cedilla" d="M260 -34Q278 -44 287 -55T296 -88Q296 -127 268 -148T192 -169Q166 -169 149 -165T120 -155L140 -106Q148 -110 159 -113T188 -116Q203 -116 212 -112T222 -94Q222 -79 211 -72T186 -62Q191 -53 199 -41T215
-18T230 3T241 18H298Q290 7 279 -8T260 -34Z" />
<glyph unicode="&#xb9;" glyph-name="onesuperior" d="M242 556Q321 584 375 626H419L349 338H430L416 281H183L196 338H286L336 539Q313 526 291 519T250 505L242 556Z" />
<glyph unicode="&#xba;" glyph-name="ordmasculine" d="M385 633Q439 633 469 603T500 519Q500 483 490 443T456 370T394 315T301 293Q247 293 217 323T186 407Q186 443 196 483T230 556T292 611T385 633ZM313 348Q341 348 363 363T401 403T425 457T433 513Q433
542 419 560T373 578Q344 578 322 563T285 523T261 469T253 413Q253 384 267 366T313 348Z" />
<glyph unicode="&#xbb;" glyph-name="guillemotright" d="M481 255L321 71L274 106L397 260L347 399L400 428L481 255ZM302 255L141 71L95 106L218 260L168 399L221 428L302 255Z" />
<glyph unicode="&#xbc;" glyph-name="onequarter" d="M138 561Q176 575 203 589T261 626H301L240 376H181L223 547Q200 536 183 529T145 516L138 561ZM496 250L459 98H495L483 48H447L436 0H377L388 48H259L269 89Q307 135 347 174T438 250H496ZM421 185Q406 173
395 163T374 142T355 122T335 98H400L421 185ZM104 0H28L510 619H588L104 0Z" />
<glyph unicode="&#xbd;" glyph-name="onehalf" d="M138 561Q176 575 203 589T261 626H301L240 376H181L223 547Q200 536 183 529T145 516L138 561ZM474 50L463 0H274Q278 22 283 37T297 64T320 86T355 108L380 122Q410 139 423 150T437 179Q437 193 428 198T405
204Q388 204 370 197T339 179L316 218Q334 235 362 245T418 256Q448 256 470 241T492 188Q492 167 482 150T456 119T422 94T388 75T361 61T347 50H474ZM95 0H19L501 619H579L95 0Z" />
<glyph unicode="&#xbe;" glyph-name="threequarters" d="M105 430Q115 425 131 421T167 417Q193 417 211 425T230 455Q230 471 212 475T161 480H149L161 530H196Q219 530 232 539T245 562Q245 583 210 583Q196 583 178 578T145 568L137 611Q152 619 177 626T229
633Q258 633 280 621T303 575Q303 558 292 540T257 510Q287 491 287 458Q287 442 279 426T255 396T215 375T159 367Q114 367 80 384L105 430ZM496 250L459 98H495L483 48H447L436 0H377L388 48H259L269 89Q307 135 347 174T438 250H496ZM421 185Q406 173 395 163T374
142T355 122T335 98H400L421 185ZM104 0H28L510 619H588L104 0Z" />
<glyph unicode="&#xbf;" glyph-name="questiondown" d="M369 243L366 223Q362 193 345 170T304 127T256 88T209 51T173 10T159 -38Q159 -67 177 -84T238 -102Q267 -102 294 -96T354 -74L363 -138Q338 -151 302 -160T226 -170Q197 -170 171 -164T123 -144T90 -107T77
-49Q77 -12 91 15T128 65T178 107T229 146T271 189T296 243H369ZM372 465Q398 465 414 451T431 405Q431 369 411 350T362 330Q336 330 319 345T301 391Q301 426 323 445T372 465Z" />
<glyph unicode="&#xc0;" glyph-name="Agrave" d="M383 0L384 162H146L70 0H-13Q20 66 60 143T143 301T233 463T327 619H425Q436 545 443 464T456 301T464 143T469 0H383ZM357 547Q319 484 273 401T181 230H381Q379 320 372 403T357 547ZM355 830L469 687L425 648L295
779L355 830Z" />
<glyph unicode="&#xc1;" glyph-name="Aacute" d="M383 0L384 162H146L70 0H-13Q20 66 60 143T143 301T233 463T327 619H425Q436 545 443 464T456 301T464 143T469 0H383ZM357 547Q319 484 273 401T181 230H381Q379 320 372 403T357 547ZM525 765L374 651L339 695L480
830L525 765Z" />
<glyph unicode="&#xc2;" glyph-name="Acircumflex" d="M383 0L384 162H146L70 0H-13Q20 66 60 143T143 301T233 463T327 619H425Q436 545 443 464T456 301T464 143T469 0H383ZM357 547Q319 484 273 401T181 230H381Q379 320 372 403T357 547ZM406 735L306 661L277
702L422 826L516 694L477 657L406 735Z" />
<glyph unicode="&#xc3;" glyph-name="Atilde" d="M383 0L384 162H146L70 0H-13Q20 66 60 143T143 301T233 463T327 619H425Q436 545 443 464T456 301T464 143T469 0H383ZM357 547Q319 484 273 401T181 230H381Q379 320 372 403T357 547ZM411 770Q425 763 435 759T456
754Q475 754 487 768T510 797L552 771Q534 734 509 714T445 694Q427 694 414 699T387 713Q373 721 363 725T341 729Q322 729 310 716T288 686L246 712Q264 749 288 769T353 790Q371 790 384 784T411 770Z" />
<glyph unicode="&#xc4;" glyph-name="Adieresis" d="M383 0L384 162H146L70 0H-13Q20 66 60 143T143 301T233 463T327 619H425Q436 545 443 464T456 301T464 143T469 0H383ZM357 547Q319 484 273 401T181 230H381Q379 320 372 403T357 547ZM321 689Q301 689 288
701T274 735Q274 761 292 777T330 794Q350 794 364 782T378 747Q378 721 360 705T321 689ZM490 689Q470 689 457 701T444 735Q444 761 461 777T500 794Q520 794 533 782T547 747Q547 721 529 705T490 689Z" />
<glyph unicode="&#xc5;" glyph-name="Aring" d="M383 0L384 162H146L70 0H-13Q17 61 55 134T135 286T222 443T311 593Q300 605 293 621T286 658Q286 700 313 724T378 749Q415 749 442 725T470 658Q470 635 460 614T430 580Q438 511 444 434T456 279T464 130T469
0H383ZM357 547Q319 484 273 401T181 230H381Q379 320 372 403T357 547ZM425 658Q425 681 412 694T378 707Q358 707 345 694T331 658Q331 635 344 622T378 609Q398 609 411 622T425 658Z" />
<glyph unicode="&#xc6;" glyph-name="AE" d="M245 0L285 162H164L88 0H8Q93 174 176 326T348 619H601L584 549H456L411 359H515L498 289H394L341 70H482L465 0H245ZM382 566Q332 478 285 391T199 230H301L382 566Z" />
<glyph unicode="&#xc7;" glyph-name="Ccedilla" d="M280 -34Q298 -44 307 -55T316 -88Q316 -127 288 -148T212 -169Q186 -169 169 -165T140 -155L160 -106Q168 -110 179 -113T208 -116Q223 -116 232 -112T242 -94Q242 -79 231 -72T206 -62Q212 -51 221 -37T240
-9Q170 3 130 58T89 202Q89 281 112 358T178 497T284 595T424 633Q484 633 520 617T574 587L535 521Q518 536 486 548T418 560Q360 560 315 530T238 451T189 341T172 215Q172 143 204 102T297 60Q345 60 382 72T437 96L446 26Q440 21 427 15T393 3T348 -7T295 -13L280
-34Z" />
<glyph unicode="&#xc8;" glyph-name="Egrave" d="M71 0L221 619H567L550 549H286L240 359H472L455 289H223L171 70H457L440 0H71ZM384 830L498 687L454 648L324 779L384 830Z" />
<glyph unicode="&#xc9;" glyph-name="Eacute" d="M71 0L221 619H567L550 549H286L240 359H472L455 289H223L171 70H457L440 0H71ZM526 765L375 651L340 695L481 830L526 765Z" />
<glyph unicode="&#xca;" glyph-name="Ecircumflex" d="M71 0L221 619H567L550 549H286L240 359H472L455 289H223L171 70H457L440 0H71ZM426 735L326 661L297 702L442 826L536 694L497 657L426 735Z" />
<glyph unicode="&#xcb;" glyph-name="Edieresis" d="M71 0L221 619H567L550 549H286L240 359H472L455 289H223L171 70H457L440 0H71ZM322 689Q302 689 289 701T275 735Q275 761 293 777T331 794Q351 794 365 782T379 747Q379 721 361 705T322 689ZM491 689Q471
689 458 701T445 735Q445 761 462 777T501 794Q521 794 534 782T548 747Q548 721 530 705T491 689Z" />
<glyph unicode="&#xcc;" glyph-name="Igrave" d="M405 549L289 70H409L392 0H71L88 70H207L322 549H203L220 619H541L524 549H405ZM357 830L471 687L427 648L297 779L357 830Z" />
<glyph unicode="&#xcd;" glyph-name="Iacute" d="M405 549L289 70H409L392 0H71L88 70H207L322 549H203L220 619H541L524 549H405ZM511 765L360 651L325 695L466 830L511 765Z" />
<glyph unicode="&#xce;" glyph-name="Icircumflex" d="M405 549L289 70H409L392 0H71L88 70H207L322 549H203L220 619H541L524 549H405ZM408 735L308 661L279 702L424 826L518 694L479 657L408 735Z" />
<glyph unicode="&#xcf;" glyph-name="Idieresis" d="M405 549L289 70H409L392 0H71L88 70H207L322 549H203L220 619H541L524 549H405ZM323 689Q303 689 290 701T276 735Q276 761 294 777T332 794Q352 794 366 782T380 747Q380 721 362 705T323 689ZM492 689Q472
689 459 701T446 735Q446 761 463 777T502 794Q522 794 535 782T549 747Q549 721 531 705T492 689Z" />
<glyph unicode="&#xd0;" glyph-name="Eth" d="M522 405Q522 326 503 252T442 121T338 30T187 -5Q158 -5 127 -2T70 9L136 289H65L82 356H153L213 610Q274 625 330 625Q420 625 471 568T522 405ZM167 71Q173 69 184 68T204 66Q254 66 297 90T371 157T421 262T439
396Q439 472 410 513T319 554Q297 554 281 551L235 356H315L298 289H219L167 71Z" />
<glyph unicode="&#xd1;" glyph-name="Ntilde" d="M349 0Q335 83 322 151T295 279T265 393T234 503L115 0H40L189 619H270Q293 544 309 487T339 377T364 266T389 134L504 619H579L430 0H349ZM415 770Q429 763 439 759T460 754Q479 754 491 768T514 797L556 771Q538
734 513 714T449 694Q431 694 418 699T391 713Q377 721 367 725T345 729Q326 729 314 716T292 686L250 712Q268 749 292 769T357 790Q375 790 388 784T415 770Z" />
<glyph unicode="&#xd2;" glyph-name="Ograve" d="M369 562Q320 562 282 526T217 434T177 313T163 190Q163 119 187 89T254 58Q303 58 341 94T405 186T444 307T458 430Q458 500 435 531T369 562ZM379 633Q451 633 496 586T541 436Q541 399 534 352T512 254T474
156T417 71T341 10T244 -13Q171 -13 126 34T80 184Q80 221 87 268T109 366T148 464T205 549T281 610T379 633ZM362 830L476 687L432 648L302 779L362 830Z" />
<glyph unicode="&#xd3;" glyph-name="Oacute" d="M369 562Q320 562 282 526T217 434T177 313T163 190Q163 119 187 89T254 58Q303 58 341 94T405 186T444 307T458 430Q458 500 435 531T369 562ZM379 633Q451 633 496 586T541 436Q541 399 534 352T512 254T474
156T417 71T341 10T244 -13Q171 -13 126 34T80 184Q80 221 87 268T109 366T148 464T205 549T281 610T379 633ZM523 765L372 651L337 695L478 830L523 765Z" />
<glyph unicode="&#xd4;" glyph-name="Ocircumflex" d="M369 562Q320 562 282 526T217 434T177 313T163 190Q163 119 187 89T254 58Q303 58 341 94T405 186T444 307T458 430Q458 500 435 531T369 562ZM379 633Q451 633 496 586T541 436Q541 399 534 352T512 254T474
156T417 71T341 10T244 -13Q171 -13 126 34T80 184Q80 221 87 268T109 366T148 464T205 549T281 610T379 633ZM412 735L312 661L283 702L428 826L522 694L483 657L412 735Z" />
<glyph unicode="&#xd5;" glyph-name="Otilde" d="M369 562Q320 562 282 526T217 434T177 313T163 190Q163 119 187 89T254 58Q303 58 341 94T405 186T444 307T458 430Q458 500 435 531T369 562ZM379 633Q451 633 496 586T541 436Q541 399 534 352T512 254T474
156T417 71T341 10T244 -13Q171 -13 126 34T80 184Q80 221 87 268T109 366T148 464T205 549T281 610T379 633ZM418 770Q432 763 442 759T463 754Q482 754 494 768T517 797L559 771Q541 734 516 714T452 694Q434 694 421 699T394 713Q380 721 370 725T348 729Q329
729 317 716T295 686L253 712Q271 749 295 769T360 790Q378 790 391 784T418 770Z" />
<glyph unicode="&#xd6;" glyph-name="Odieresis" d="M369 562Q320 562 282 526T217 434T177 313T163 190Q163 119 187 89T254 58Q303 58 341 94T405 186T444 307T458 430Q458 500 435 531T369 562ZM379 633Q451 633 496 586T541 436Q541 399 534 352T512 254T474
156T417 71T341 10T244 -13Q171 -13 126 34T80 184Q80 221 87 268T109 366T148 464T205 549T281 610T379 633ZM328 689Q308 689 295 701T281 735Q281 761 299 777T337 794Q357 794 371 782T385 747Q385 721 367 705T328 689ZM497 689Q477 689 464 701T451 735Q451
761 468 777T507 794Q527 794 540 782T554 747Q554 721 536 705T497 689Z" />
<glyph unicode="&#xd7;" glyph-name="multiply" d="M290 213L129 82L88 136L250 267L153 396L209 441L306 313L467 444L509 390L346 259L444 130L388 85L290 213Z" />
<glyph unicode="&#xd8;" glyph-name="Oslash" d="M370 633Q432 633 472 599L510 651L561 614L512 547Q532 502 532 436Q532 399 525 352T503 254T465 156T408 71T332 10T235 -13Q171 -13 130 21L91 -33L41 3L92 73Q82 95 77 122T71 184Q71 221 78 268T100 366T139
464T196 549T272 610T370 633ZM453 430Q453 438 453 446T451 463L177 86Q201 58 245 58Q294 58 332 94T398 186T439 307T453 430ZM360 562Q311 562 273 526T207 434T166 313T152 190Q152 182 152 174T153 157L426 535Q402 562 360 562Z" />
<glyph unicode="&#xd9;" glyph-name="Ugrave" d="M237 -13Q196 -13 167 1T119 38T90 93T81 158Q81 188 89 222L184 619H266L171 223Q163 189 163 160Q163 139 167 121T182 88T208 66T249 58Q276 58 298 64T338 88T370 135T396 212L494 619H576L476 202Q464 151
447 111T402 44T334 2T237 -13ZM331 830L445 687L401 648L271 779L331 830Z" />
<glyph unicode="&#xda;" glyph-name="Uacute" d="M237 -13Q196 -13 167 1T119 38T90 93T81 158Q81 188 89 222L184 619H266L171 223Q163 189 163 160Q163 139 167 121T182 88T208 66T249 58Q276 58 298 64T338 88T370 135T396 212L494 619H576L476 202Q464 151
447 111T402 44T334 2T237 -13ZM527 765L376 651L341 695L482 830L527 765Z" />
<glyph unicode="&#xdb;" glyph-name="Ucircumflex" d="M237 -13Q196 -13 167 1T119 38T90 93T81 158Q81 188 89 222L184 619H266L171 223Q163 189 163 160Q163 139 167 121T182 88T208 66T249 58Q276 58 298 64T338 88T370 135T396 212L494 619H576L476 202Q464
151 447 111T402 44T334 2T237 -13ZM408 735L308 661L279 702L424 826L518 694L479 657L408 735Z" />
<glyph unicode="&#xdc;" glyph-name="Udieresis" d="M237 -13Q196 -13 167 1T119 38T90 93T81 158Q81 188 89 222L184 619H266L171 223Q163 189 163 160Q163 139 167 121T182 88T208 66T249 58Q276 58 298 64T338 88T370 135T396 212L494 619H576L476 202Q464
151 447 111T402 44T334 2T237 -13ZM323 689Q303 689 290 701T276 735Q276 761 294 777T332 794Q352 794 366 782T380 747Q380 721 362 705T323 689ZM492 689Q472 689 459 701T446 735Q446 761 463 777T502 794Q522 794 535 782T549 747Q549 721 531 705T492 689Z"
/>
<glyph unicode="&#xdd;" glyph-name="Yacute" d="M622 619Q562 521 489 425T334 232L278 0H196L251 230Q214 330 188 425T147 619H229Q238 538 260 452T305 293Q335 332 366 374T426 458T483 542T533 619H622ZM536 765L385 651L350 695L491 830L536 765Z" />
<glyph unicode="&#xde;" glyph-name="Thorn" d="M202 619H284L260 517Q291 520 321 520Q420 520 469 477T518 363Q518 294 491 249T419 176T318 138T203 127H166L135 0H53L202 619ZM183 199H222Q263 199 300 207T367 233T413 281T430 355Q430 392 410 411T360
438T298 446T241 443L183 199Z" />
<glyph unicode="&#xdf;" glyph-name="germandbls" d="M175 463Q188 518 204 560T243 632T299 677T378 693Q449 693 482 659T515 572Q515 546 510 527T493 491T464 458T422 420Q407 406 396 397T378 378T367 358T363 335Q363 321 373 310T398 288T430 266T462 238T487
201T497 150Q497 108 481 78T439 27T378 -2T308 -12Q277 -12 253 -7T202 12L233 84Q253 71 271 66T316 60Q335 60 353 64T385 79T407 106T415 145Q415 168 405 183T380 209T348 231T315 254T290 285T280 330Q280 370 304 398T357 450T410 500T434 563Q434 622 373
622Q326 622 300 578T257 461L162 18Q151 -32 137 -67T100 -125T46 -158T-29 -168Q-44 -168 -63 -164T-93 -152L-74 -83Q-53 -96 -16 -96Q25 -96 46 -65T79 17L175 463Z" />
<glyph unicode="&#xe0;" glyph-name="agrave" d="M376 -5Q371 5 367 16T361 42Q341 24 306 7T222 -11Q144 -11 108 36T71 155Q71 215 91 272T151 374T253 446T395 474Q407 474 422 473T454 469T485 462T513 451L445 171Q440 150 437 132T433 92Q433 71 437 51T449
5L376 -5ZM239 57Q277 57 306 73T356 111Q357 126 359 145T366 181L421 400Q416 402 402 403T380 405Q329 405 288 385T216 332T170 255T154 164Q154 141 158 122T171 88T197 66T239 57ZM341 691L455 548L411 509L281 640L341 691Z" />
<glyph unicode="&#xe1;" glyph-name="aacute" d="M376 -5Q371 5 367 16T361 42Q341 24 306 7T222 -11Q144 -11 108 36T71 155Q71 215 91 272T151 374T253 446T395 474Q407 474 422 473T454 469T485 462T513 451L445 171Q440 150 437 132T433 92Q433 71 437 51T449
5L376 -5ZM239 57Q277 57 306 73T356 111Q357 126 359 145T366 181L421 400Q416 402 402 403T380 405Q329 405 288 385T216 332T170 255T154 164Q154 141 158 122T171 88T197 66T239 57ZM511 626L360 512L325 556L466 691L511 626Z" />
<glyph unicode="&#xe2;" glyph-name="acircumflex" d="M376 -5Q371 5 367 16T361 42Q341 24 306 7T222 -11Q144 -11 108 36T71 155Q71 215 91 272T151 374T253 446T395 474Q407 474 422 473T454 469T485 462T513 451L445 171Q440 150 437 132T433 92Q433 71 437
51T449 5L376 -5ZM239 57Q277 57 306 73T356 111Q357 126 359 145T366 181L421 400Q416 402 402 403T380 405Q329 405 288 385T216 332T170 255T154 164Q154 141 158 122T171 88T197 66T239 57ZM392 596L292 522L263 563L408 687L502 555L463 518L392 596Z" />
<glyph unicode="&#xe3;" glyph-name="atilde" d="M376 -5Q371 5 367 16T361 42Q341 24 306 7T222 -11Q144 -11 108 36T71 155Q71 215 91 272T151 374T253 446T395 474Q407 474 422 473T454 469T485 462T513 451L445 171Q440 150 437 132T433 92Q433 71 437 51T449
5L376 -5ZM239 57Q277 57 306 73T356 111Q357 126 359 145T366 181L421 400Q416 402 402 403T380 405Q329 405 288 385T216 332T170 255T154 164Q154 141 158 122T171 88T197 66T239 57ZM406 631Q420 624 430 620T451 615Q470 615 482 629T505 658L547 632Q529
595 504 575T440 555Q422 555 409 560T382 574Q368 582 358 586T336 590Q317 590 305 577T283 547L241 573Q259 610 283 630T348 651Q366 651 379 645T406 631Z" />
<glyph unicode="&#xe4;" glyph-name="adieresis" d="M376 -5Q371 5 367 16T361 42Q341 24 306 7T222 -11Q144 -11 108 36T71 155Q71 215 91 272T151 374T253 446T395 474Q407 474 422 473T454 469T485 462T513 451L445 171Q440 150 437 132T433 92Q433 71 437
51T449 5L376 -5ZM239 57Q277 57 306 73T356 111Q357 126 359 145T366 181L421 400Q416 402 402 403T380 405Q329 405 288 385T216 332T170 255T154 164Q154 141 158 122T171 88T197 66T239 57ZM316 550Q296 550 283 562T269 596Q269 622 287 638T325 655Q345 655
359 643T373 608Q373 582 355 566T316 550ZM485 550Q465 550 452 562T439 596Q439 622 456 638T495 655Q515 655 528 643T542 608Q542 582 524 566T485 550Z" />
<glyph unicode="&#xe5;" glyph-name="aring" d="M376 -5Q371 5 367 16T361 42Q341 24 306 7T222 -11Q144 -11 108 36T71 155Q71 215 91 272T151 374T253 446T395 474Q407 474 422 473T454 469T485 462T513 451L445 171Q440 150 437 132T433 92Q433 71 437 51T449
5L376 -5ZM239 57Q277 57 306 73T356 111Q357 126 359 145T366 181L421 400Q416 402 402 403T380 405Q329 405 288 385T216 332T170 255T154 164Q154 141 158 122T171 88T197 66T239 57ZM488 605Q488 562 461 538T396 513Q359 513 332 537T304 605Q304 647 331
671T396 696Q433 696 460 672T488 605ZM443 605Q443 628 430 641T396 654Q376 654 363 641T349 605Q349 581 362 568T396 555Q416 555 429 568T443 605Z" />
<glyph unicode="&#xe6;" glyph-name="ae" d="M266 79Q255 58 240 41T206 13T169 -5T132 -11Q97 -11 72 14T46 93Q46 124 59 156T98 217T166 263T263 284Q264 291 264 297T264 311Q264 358 246 380T197 403Q166 403 125 380L130 449Q152 463 174 469T217 475Q235
475 253 470T287 455T314 427T330 385Q351 428 387 451T459 475Q494 475 519 450T545 371Q545 340 533 308T493 248T425 202T327 180V154Q327 106 345 84T394 62Q425 62 466 85L461 15Q439 1 417 -5T374 -11Q356 -11 339 -6T307 9T281 37T266 79ZM156 59Q168 59
182 69T211 98T237 147T256 215Q219 213 194 203T154 178T132 145T125 111Q125 85 133 72T156 59ZM435 405Q423 405 409 395T380 366T354 317T335 249Q372 250 397 260T437 286T459 319T466 354Q466 380 458 392T435 405Z" />
<glyph unicode="&#xe7;" glyph-name="ccedilla" d="M260 -34Q278 -44 287 -55T296 -88Q296 -127 268 -148T192 -169Q166 -169 149 -165T120 -155L140 -106Q148 -110 159 -113T188 -116Q203 -116 212 -112T222 -94Q222 -79 211 -72T186 -62Q192 -51 202 -36T222
-7Q146 7 109 53T71 166Q71 227 91 283T151 382T248 450T381 476Q422 476 453 471T511 454L480 384Q463 392 440 399T374 406Q323 406 282 387T213 335T169 261T154 174Q154 151 160 131T182 94T225 69T295 60Q317 60 338 63T377 71T408 81T429 91L436 21Q418 10
378 -1T280 -12H276L260 -34Z" />
<glyph unicode="&#xe8;" glyph-name="egrave" d="M162 244Q222 245 270 249T351 266T403 299T421 354Q421 362 418 371T406 388T382 401T345 406Q311 406 282 393T228 357T188 305T162 244ZM263 -12Q214 -12 178 2T118 41T83 96T71 162Q71 225 90 282T147 381T236
449T355 475Q394 475 422 466T468 441T494 404T503 360Q503 297 471 262T388 210T275 187T152 180Q146 117 185 89T288 60Q309 60 331 63T373 71T408 81T429 91L436 21Q417 11 374 0T263 -12ZM342 691L456 548L412 509L282 640L342 691Z" />
<glyph unicode="&#xe9;" glyph-name="eacute" d="M162 244Q222 245 270 249T351 266T403 299T421 354Q421 362 418 371T406 388T382 401T345 406Q311 406 282 393T228 357T188 305T162 244ZM263 -12Q214 -12 178 2T118 41T83 96T71 162Q71 225 90 282T147 381T236
449T355 475Q394 475 422 466T468 441T494 404T503 360Q503 297 471 262T388 210T275 187T152 180Q146 117 185 89T288 60Q309 60 331 63T373 71T408 81T429 91L436 21Q417 11 374 0T263 -12ZM491 626L340 512L305 556L446 691L491 626Z" />
<glyph unicode="&#xea;" glyph-name="ecircumflex" d="M162 244Q222 245 270 249T351 266T403 299T421 354Q421 362 418 371T406 388T382 401T345 406Q311 406 282 393T228 357T188 305T162 244ZM263 -12Q214 -12 178 2T118 41T83 96T71 162Q71 225 90 282T147
381T236 449T355 475Q394 475 422 466T468 441T494 404T503 360Q503 297 471 262T388 210T275 187T152 180Q146 117 185 89T288 60Q309 60 331 63T373 71T408 81T429 91L436 21Q417 11 374 0T263 -12ZM382 596L282 522L253 563L398 687L492 555L453 518L382 596Z"
/>
<glyph unicode="&#xeb;" glyph-name="edieresis" d="M162 244Q222 245 270 249T351 266T403 299T421 354Q421 362 418 371T406 388T382 401T345 406Q311 406 282 393T228 357T188 305T162 244ZM263 -12Q214 -12 178 2T118 41T83 96T71 162Q71 225 90 282T147 381T236
449T355 475Q394 475 422 466T468 441T494 404T503 360Q503 297 471 262T388 210T275 187T152 180Q146 117 185 89T288 60Q309 60 331 63T373 71T408 81T429 91L436 21Q417 11 374 0T263 -12ZM308 550Q288 550 275 562T261 596Q261 622 279 638T317 655Q337 655
351 643T365 608Q365 582 347 566T308 550ZM477 550Q457 550 444 562T431 596Q431 622 448 638T487 655Q507 655 520 643T534 608Q534 582 516 566T477 550Z" />
<glyph unicode="&#xec;" glyph-name="igrave" d="M305 205Q300 185 297 167T293 132Q293 104 307 86T363 67Q380 67 396 69T426 76L421 6Q414 4 396 1T343 -3Q306 -3 281 7T240 34T218 74T211 124Q211 145 214 167T223 212L268 395H134L150 464H366L305 205ZM543
691L657 548L613 509L483 640L543 691Z" />
<glyph unicode="&#xed;" glyph-name="iacute" d="M305 205Q300 185 297 167T293 132Q293 104 307 86T363 67Q380 67 396 69T426 76L421 6Q414 4 396 1T343 -3Q306 -3 281 7T240 34T218 74T211 124Q211 145 214 167T223 212L268 395H134L150 464H366L305 205ZM713
626L562 512L527 556L668 691L713 626Z" />
<glyph unicode="&#xee;" glyph-name="icircumflex" d="M305 205Q300 185 297 167T293 132Q293 104 307 86T363 67Q380 67 396 69T426 76L421 6Q414 4 396 1T343 -3Q306 -3 281 7T240 34T218 74T211 124Q211 145 214 167T223 212L268 395H134L150 464H366L305 205ZM594
596L494 522L465 563L610 687L704 555L665 518L594 596Z" />
<glyph unicode="&#xef;" glyph-name="idieresis" d="M305 205Q300 185 297 167T293 132Q293 104 307 86T363 67Q380 67 396 69T426 76L421 6Q414 4 396 1T343 -3Q306 -3 281 7T240 34T218 74T211 124Q211 145 214 167T223 212L268 395H134L150 464H366L305 205ZM509
550Q489 550 476 562T462 596Q462 622 480 638T518 655Q538 655 552 643T566 608Q566 582 548 566T509 550ZM678 550Q658 550 645 562T632 596Q632 622 649 638T688 655Q708 655 721 643T735 608Q735 582 717 566T678 550Z" />
<glyph unicode="&#xf0;" glyph-name="eth" d="M499 381Q499 354 496 315T482 232T453 145T405 66T333 10T233 -12Q200 -12 172 1T124 37T92 91T80 157Q80 216 96 267T143 357T220 416T326 438Q355 438 378 430T416 411Q414 440 408 469T389 529L273 492L266 548L364
580Q350 603 335 618T301 651L363 693Q380 680 400 658T441 604L558 641L565 585L467 554Q481 519 490 476T499 381ZM245 58Q284 58 314 82T365 144T398 231T414 330Q393 350 369 359T320 368Q244 368 204 312T163 158Q163 114 184 86T245 58Z" />
<glyph unicode="&#xf1;" glyph-name="ntilde" d="M145 0H63L170 447Q211 459 258 466T343 474Q383 474 412 463T459 433T485 386T494 327Q494 306 490 284T480 238L423 0H341L394 220Q400 245 406 270T412 320Q412 355 392 378T319 402Q296 402 275 400T239 392L145
0ZM377 631Q391 624 401 620T422 615Q441 615 453 629T476 658L518 632Q500 595 475 575T411 555Q393 555 380 560T353 574Q339 582 329 586T307 590Q288 590 276 577T254 547L212 573Q230 610 254 630T319 651Q337 651 350 645T377 631Z" />
<glyph unicode="&#xf2;" glyph-name="ograve" d="M237 -11Q163 -11 122 32T80 151Q80 203 94 260T141 365T225 444T348 475Q422 475 463 432T505 313Q505 261 491 204T444 99T360 20T237 -11ZM251 63Q291 63 323 85T377 143T410 221T422 306Q422 351 402 376T334
402Q294 402 262 380T208 322T175 243T163 158Q163 113 183 88T251 63ZM331 691L445 548L401 509L271 640L331 691Z" />
<glyph unicode="&#xf3;" glyph-name="oacute" d="M237 -11Q163 -11 122 32T80 151Q80 203 94 260T141 365T225 444T348 475Q422 475 463 432T505 313Q505 261 491 204T444 99T360 20T237 -11ZM251 63Q291 63 323 85T377 143T410 221T422 306Q422 351 402 376T334
402Q294 402 262 380T208 322T175 243T163 158Q163 113 183 88T251 63ZM491 626L340 512L305 556L446 691L491 626Z" />
<glyph unicode="&#xf4;" glyph-name="ocircumflex" d="M237 -11Q163 -11 122 32T80 151Q80 203 94 260T141 365T225 444T348 475Q422 475 463 432T505 313Q505 261 491 204T444 99T360 20T237 -11ZM251 63Q291 63 323 85T377 143T410 221T422 306Q422 351 402
376T334 402Q294 402 262 380T208 322T175 243T163 158Q163 113 183 88T251 63ZM381 596L281 522L252 563L397 687L491 555L452 518L381 596Z" />
<glyph unicode="&#xf5;" glyph-name="otilde" d="M237 -11Q163 -11 122 32T80 151Q80 203 94 260T141 365T225 444T348 475Q422 475 463 432T505 313Q505 261 491 204T444 99T360 20T237 -11ZM251 63Q291 63 323 85T377 143T410 221T422 306Q422 351 402 376T334
402Q294 402 262 380T208 322T175 243T163 158Q163 113 183 88T251 63ZM386 631Q400 624 410 620T431 615Q450 615 462 629T485 658L527 632Q509 595 484 575T420 555Q402 555 389 560T362 574Q348 582 338 586T316 590Q297 590 285 577T263 547L221 573Q239 610
263 630T328 651Q346 651 359 645T386 631Z" />
<glyph unicode="&#xf6;" glyph-name="odieresis" d="M237 -11Q163 -11 122 32T80 151Q80 203 94 260T141 365T225 444T348 475Q422 475 463 432T505 313Q505 261 491 204T444 99T360 20T237 -11ZM251 63Q291 63 323 85T377 143T410 221T422 306Q422 351 402 376T334
402Q294 402 262 380T208 322T175 243T163 158Q163 113 183 88T251 63ZM294 550Q274 550 261 562T247 596Q247 622 265 638T303 655Q323 655 337 643T351 608Q351 582 333 566T294 550ZM463 550Q443 550 430 562T417 596Q417 622 434 638T473 655Q493 655 506 643T520
608Q520 582 502 566T463 550Z" />
<glyph unicode="&#xf7;" glyph-name="divide" d="M328 108Q328 96 323 83T309 60T286 43T258 36Q235 36 222 50T208 85Q208 113 228 135T280 158Q303 158 315 144T328 108ZM386 440Q386 427 381 414T367 391T345 374T316 367Q292 367 279 381T266 417Q266 446
287 467T338 489Q361 489 373 475T386 440ZM505 298L488 228H88L104 298H505Z" />
<glyph unicode="&#xf8;" glyph-name="oslash" d="M556 457L490 390Q497 374 501 355T505 313Q505 261 491 204T444 99T360 20T237 -11Q168 -11 128 26L71 -32L29 7L95 73Q80 107 80 151Q80 203 94 260T141 365T225 444T348 475Q416 475 456 438L513 496L556 457ZM159
158Q159 153 159 149T160 139L400 381Q379 402 334 402Q294 402 262 380T207 322T172 243T159 158ZM251 63Q291 63 323 85T378 143T413 221T426 306Q426 311 426 315T425 325L184 82Q208 63 251 63Z" />
<glyph unicode="&#xf9;" glyph-name="ugrave" d="M222 -10Q183 -10 157 1T115 32T91 78T84 135Q84 158 88 181T97 227L154 464H237L184 245Q179 224 173 197T166 141Q166 125 169 111T180 85T202 67T238 60Q276 60 306 76T355 115Q356 129 357 144T364 178L433
464H515L445 171Q440 150 437 131T434 91Q434 70 437 50T450 5L377 -5Q372 5 368 17T361 44Q341 26 307 8T222 -10ZM561 691L675 548L631 509L501 640L561 691Z" />
<glyph unicode="&#xfa;" glyph-name="uacute" d="M222 -10Q183 -10 157 1T115 32T91 78T84 135Q84 158 88 181T97 227L154 464H237L184 245Q179 224 173 197T166 141Q166 125 169 111T180 85T202 67T238 60Q276 60 306 76T355 115Q356 129 357 144T364 178L433
464H515L445 171Q440 150 437 131T434 91Q434 70 437 50T450 5L377 -5Q372 5 368 17T361 44Q341 26 307 8T222 -10ZM731 626L580 512L545 556L686 691L731 626Z" />
<glyph unicode="&#xfb;" glyph-name="ucircumflex" d="M222 -10Q183 -10 157 1T115 32T91 78T84 135Q84 158 88 181T97 227L154 464H237L184 245Q179 224 173 197T166 141Q166 125 169 111T180 85T202 67T238 60Q276 60 306 76T355 115Q356 129 357 144T364 178L433
464H515L445 171Q440 150 437 131T434 91Q434 70 437 50T450 5L377 -5Q372 5 368 17T361 44Q341 26 307 8T222 -10ZM621 596L521 522L492 563L637 687L731 555L692 518L621 596Z" />
<glyph unicode="&#xfc;" glyph-name="udieresis" d="M222 -10Q183 -10 157 1T115 32T91 78T84 135Q84 158 88 181T97 227L154 464H237L184 245Q179 224 173 197T166 141Q166 125 169 111T180 85T202 67T238 60Q276 60 306 76T355 115Q356 129 357 144T364 178L433
464H515L445 171Q440 150 437 131T434 91Q434 70 437 50T450 5L377 -5Q372 5 368 17T361 44Q341 26 307 8T222 -10ZM527 550Q507 550 494 562T480 596Q480 622 498 638T536 655Q556 655 570 643T584 608Q584 582 566 566T527 550ZM696 550Q676 550 663 562T650
596Q650 622 667 638T706 655Q726 655 739 643T753 608Q753 582 735 566T696 550Z" />
<glyph unicode="&#xfd;" glyph-name="yacute" d="M283 75Q317 129 344 186T393 296T428 393T449 464H536Q526 430 508 380T465 271T407 151T338 34Q310 -8 282 -45T221 -109T149 -152T60 -168Q35 -168 14 -162T-18 -148L11 -80Q19 -88 34 -92T69 -97Q121 -97 156
-76T225 -6Q192 103 167 222T137 464H221Q222 424 227 376T240 277T260 174T283 75ZM730 626L579 512L544 556L685 691L730 626Z" />
<glyph unicode="&#xfe;" glyph-name="thorn" d="M248 446Q280 466 310 470T359 475Q394 475 421 463T467 429T495 377T505 312Q505 250 485 192T426 89T327 17T189 -10Q179 -10 163 -9T138 -6L100 -165H18L221 679L306 693L248 446ZM155 67Q164 65 179 64T204
62Q252 62 292 82T361 135T406 211T423 302Q423 322 419 340T404 373T376 396T334 405Q312 405 284 398T228 370L155 67Z" />
<glyph unicode="&#xff;" glyph-name="ydieresis" d="M283 75Q317 129 344 186T393 296T428 393T449 464H536Q526 430 508 380T465 271T407 151T338 34Q310 -8 282 -45T221 -109T149 -152T60 -168Q35 -168 14 -162T-18 -148L11 -80Q19 -88 34 -92T69 -97Q121 -97
156 -76T225 -6Q192 103 167 222T137 464H221Q222 424 227 376T240 277T260 174T283 75ZM526 550Q506 550 493 562T479 596Q479 622 497 638T535 655Q555 655 569 643T583 608Q583 582 565 566T526 550ZM695 550Q675 550 662 562T649 596Q649 622 666 638T705 655Q725
655 738 643T752 608Q752 582 734 566T695 550Z" />
<glyph unicode="&#x2013;" glyph-name="endash" d="M117 306H480L463 236H100L117 306Z" />
<glyph unicode="&#x2014;" glyph-name="emdash" d="M52 306H552L535 236H36L52 306Z" />
<glyph unicode="&#x2018;" glyph-name="quoteleft" d="M363 573Q388 569 401 550T414 507Q414 473 393 450T334 427Q300 427 283 450T265 509Q265 537 277 569T315 631T381 681T476 710L483 646Q466 644 448 639T413 626T383 604T363 573Z" />
<glyph unicode="&#x2019;" glyph-name="quoteright" d="M357 561Q333 565 320 584T306 627Q306 661 328 684T387 707Q420 707 437 684T455 625Q455 596 443 564T406 503T340 453T245 424L238 488Q255 490 273 495T307 508T337 530T357 561Z" />
<glyph unicode="&#x201a;" glyph-name="quotesinglbase" d="M230 -8Q202 -4 188 15T174 59Q174 93 195 116T255 139Q288 139 305 116T323 57Q323 28 311 -4T274 -65T208 -115T113 -144L105 -79Q122 -78 141 -73T178 -60T210 -39T230 -8Z" />
<glyph unicode="&#x201c;" glyph-name="quotedblleft" d="M572 635Q555 631 539 628T510 617T486 600T469 571Q496 569 510 549T525 505Q525 480 509 460T459 439Q430 439 409 459T388 523Q388 548 398 575T430 626T483 668T557 693L572 635ZM339 635Q322 631
307 628T278 617T254 600T237 571Q264 569 278 549T293 505Q293 480 277 460T227 439Q198 439 177 459T155 523Q155 548 166 575T198 626T251 668T325 693L339 635Z" />
<glyph unicode="&#x201d;" glyph-name="quotedblright" d="M142 497Q159 500 174 504T203 514T228 532T245 561Q217 563 203 583T188 626Q188 651 204 671T255 692Q284 692 305 672T326 608Q326 583 316 556T284 505T230 463T156 438L142 497ZM374 497Q391 500
406 504T435 514T460 532T477 561Q449 563 435 583T421 626Q421 651 437 671T487 692Q516 692 537 672T558 608Q558 583 548 556T516 505T462 463T388 438L374 497Z" />
<glyph unicode="&#x201e;" glyph-name="quotedblbase" d="M31 -74Q65 -67 93 -56T134 -10Q106 -8 92 12T78 55Q78 80 94 100T144 121Q173 121 194 102T215 38Q215 13 205 -14T173 -65T120 -107T46 -132L31 -74ZM263 -74Q297 -67 325 -56T366 -10Q339 -8 325 12T310
55Q310 80 326 100T376 121Q405 121 426 102T447 38Q447 13 437 -14T405 -65T352 -107T278 -132L263 -74Z" />
<glyph unicode="&#x2022;" glyph-name="bullet" d="M437 286Q437 257 428 231T401 186T358 155T301 143Q269 143 244 154T202 185T175 231T165 286Q165 314 174 340T201 386T244 417T301 429Q332 429 357 418T400 386T427 340T437 286Z" />
<glyph unicode="&#x2039;" glyph-name="guilsinglleft" d="M346 82L291 56L186 259L367 451L419 420L279 250L346 82Z" />
<glyph unicode="&#x203a;" glyph-name="guilsinglright" d="M235 427L290 453L396 250L214 58L163 89L303 259L235 427Z" />
</font>
</defs>
</svg>
